Скачать через торрент Леонард Нимой в передаче Уильяма Шетнера "Оголенный нерв" Фильм бесплатно в хорошем качестве torrent

Скачивайте на UnionPeer.org фильмы через торрент без регистрации. Новинки кино в хорошем качестве через торрент. На UnionPeer.org можно скачать через торрент фильмы 2014 и 2015 годов. Самые новые фильмы.

Скачать торрент Леонард Нимой в передаче Уильяма Шетнера "Оголенный нерв" бесплатно через .torrent фильм мультфильм сериал

Статистика раздачи
Размер:  189 MB   |    Зарегистрирован:  9 лет 2 месяца   |    .torrent скачан:  9 раз   |   
Раздают:  1  
   
 
Автор Сообщение

Galfimbul

avatar Galfimbul


Леонард Нимой в передаче Уильяма Шетнера "Оголённый нерв" (6.01.2009) /
Leonard Nimoy on William Shatner's "RAW NERVE, ep 07"


Год выпуска: 2009
Страна: США
Жанр: Телепередача
Продолжительность: 00:21:39
Перевод: Любительский одноголосый закадровый (innokent33)
Русские субтитры: есть
Автор перевода: Татьяна Saavick
Режиссер: Уильям Шетнер / William Shatner
Описание: Откровенные интервью со звёздами.
В гостях у 78-летнего ведущего - его давний друг со времен "Звёздного Пути" / Star Trek Original Series - Леонард "Спок" Нимой.
Очень интересные факты из жизни знаменитого актёра, режиссёра и фотографа.
Доп. информация: Для озвучки взят [url=...1686147]релиз с субтитрами[/url] + моя скромная попытка озвучки по субтитрам.


качество: SATRip
формат: AVI
Видео: 624x352 (1.77:1), 23.976 fps, XviD build 50 ~950 kbps avg, 0.18 bit/pixel
Аудио (рус): 48 kHz, MPEG Layer 3, 2 ch, ~128.00 kbps avg
Аудио (англ): 48 kHz, MPEG Layer 3, 2 ch, ~128.00 kbps avg
General
Complete name : D:\\SHATNER_NIMOY\Shatners.Raw.Nerve.NIMOY.2009.avi
Format : AVI
Format/Info : Audio Video Interleave
File size : 189 MiB
Duration : 21mn 39s
Overall bit rate : 1 222 Kbps
Writing application : VirtualDubModRus 1.5.10.2 (build 2542/release)
Writing library : VirtualDubMod build 2542/release

Video
ID : 0
Format : MPEG-4 Visual
Format profile : Advanced Simple@L5
Format settings, BVOP : 2
Format settings, QPel : No
Format settings, GMC : No warppoints
Format settings, Matrix : Default (H.263)
Codec ID : XVID
Codec ID/Hint : XviD
Duration : 21mn 39s
Bit rate : 952 Kbps
Width : 624 pixels
Height : 352 pixels
Display aspect ratio : 16:9
Frame rate : 23.976 fps
Color space : YUV
Chroma subsampling : 4:2:0
Bit depth : 8 bits
Scan type : Progressive
Compression mode : Lossy
Bits/(Pixel*Frame) : 0.181
Stream size : 147 MiB (78%)
Writing library : XviD 1.2.1 (UTC 2008-12-04)

Audio #1
ID : 1
Format : MPEG Audio
Format version : Version 1
Format profile : Layer 3
Mode : Joint stereo
Mode extension : MS Stereo
Codec ID : 55
Codec ID/Hint : MP3
Duration : 21mn 39s
Bit rate mode : Constant
Bit rate : 128 Kbps
Channel(s) : 2 channels
Sampling rate : 48.0 KHz
Compression mode : Lossy
Stream size : 19.8 MiB (10%)
Alignment : Aligned on interleaves
Interleave, duration : 42 ms (1.00 video frame)
Interleave, preload duration : 504 ms
Writing library : LAME3.98
Encoding settings : -m j -V 4 -q 5 -lowpass 17 -b 128

Audio #2
ID : 2
Format : MPEG Audio
Format version : Version 1
Format profile : Layer 3
Mode : Joint stereo
Mode extension : MS Stereo
Codec ID : 55
Codec ID/Hint : MP3
Duration : 21mn 39s
Bit rate mode : Constant
Bit rate : 128 Kbps
Channel(s) : 2 channels
Sampling rate : 48.0 KHz
Compression mode : Lossy
Stream size : 19.8 MiB (10%)
Alignment : Aligned on interleaves
Interleave, duration : 42 ms (1.00 video frame)
Interleave, preload duration : 504 ms
Writing library : LAME3.98
Encoding settings : -m j -V 4 -q 5 -lowpass 17 -b 128

* [url=...4118087]Звёздный Путь: Встреча капитанов / STAR TREK: THE CAPTAINS' SUMMIT (2009)[/url]
* Капитаны / The Captains (2011) (по переводу Ильи Вяземского): [url=...4505062]AVI[/url] (795 MB)
* Капитаны / The Captains (2011) (по переводу katyuxa): [url=...4532686]AVI[/url] (1.5 GB) - [url=...4532692]MKV[/url] (2.39 GB)


Внимание! AdBlock блокирует показ скриншотов, все вопросы к разработчикам )))
Трекер:  [ 18-Дек-2014 00:00 ]

  

Скачать .torrent

Размер .torrent файла 15 KB


Размер: 189 MB
Хэш (hash) релиза: 5a13971a4b5b08a5a0139895c0ca370f1eca09c2
Подписка на обновления:

Еще никто не оставлял запись к записи скачать торрент Леонард Нимой в передаче Уильяма Шетнера "Оголенный нерв" . Будь первым!

!Обратная связь