Скачать через торрент Лимбо Limbo Фильм бесплатно в хорошем качестве torrent

Скачивайте на UnionPeer.org фильмы через торрент без регистрации. Новинки кино в хорошем качестве через торрент. На UnionPeer.org можно скачать через торрент фильмы 2014 и 2015 годов. Самые новые фильмы.

Скачать торрент Лимбо Limbo бесплатно через .torrent фильм мультфильм сериал

Статистика раздачи
Размер:  998 MB   |    Зарегистрирован:  9 лет 1 месяц   |    .torrent скачан:  25 раз   |   
Раздают:  1  
 

Скачать Лимбо / Limbo (Иван Ноэль / Iván Noel) [2013, Аргентина, комедия, мистика, ужасы, HDRip] Sub Rus + Original Spa через torrent

 
 
Автор Сообщение

Galfimbul

avatar Galfimbul


Лимбо / Limbo

Страна: Аргентина
Жанр: комедия, мистика, ужасы
Год выпуска: 2013
Продолжительность: 01:39:56

Перевод: Субтитры Алексей Крылов aka rrrtttsss aka prostotak
Cубтитры: русские
Оригинальная аудиодорожка: испанский

Режиссер: Иван Ноэль / Iván Noel

В ролях: Анна-Мария Джунта, Тото Муньос, Сабрина Рамос, Лауро Верон и др.

Описание: Черная вампирская комедия. "Лимбо" - уединенная колония, в которой живут дети-вампиры в возрасте от 4 до 120 лет, которые стали жертвами бессовестных взрослых вампиров. О них заботится глубоко религиозная пожилая медсестра, которая всю свою жизнь посвятила поиску "потерянных душ", чтобы вырастить их в своей колонии для воплощения божественной воли по... созданию новой расы людей путем "естественного клонирования" (которое подразумевает, что люди превратятся в вампиров после того, как будут укушены ее подопечными). Чтобы помочь в осуществлении этих планов и защитить детей от "людей в черном", возглавляемых сыном писателя Брэма Стокера, которому противостоит юный внук графа Дракулы, она приглашает в колонию известную журналистку Алисию Делаторре...

Доп. информация: Информация о фильме на IMDB - http://www.imdb.com/title/tt2945892/ (год выпуска фильма на IMDB указан ошибочно, режиссер начал возить его по различным фестивалям в 2013 году, а выложил для скачки и заказа на носителях на своем сайте - в 2014 году).
Приобрести фильм в HD-качестве в цифровом формате за смешные 10 долларов можно на сайте режиссера Ивана Ноэля - http://www.noelfilms.com/

Сэмпл: http://multi-up.com/1023989

Качество видео: HDRip
Формат видео: AVI

Видео: 720x408 (1.76:1), 29.970 fps, XviD build 64 ~1189 kbps avg, 0.14 bit/pixel
Аудио: 48 kHz, MPEG Layer 3, 2 ch, ~192.00 kbps avg
Формат субтитров: softsub (SRT)
Общее
Полное имя : H:\SEED\Limbo (2013) rus\Limbo (2013) rus.avi
Формат : AVI
Формат/Информация : Audio Video Interleave
Размер файла : 998 Мбайт
Продолжительность : 1 ч. 39 м.
Общий поток : 1396 Кбит/сек
Программа кодирования : XviD4PSP 6.0 / 53.6.0

Видео
Идентификатор : 0
Формат : MPEG-4 Visual
Профиль формата : Advanced Simple@L5
Параметр BVOP формата : 3
Параметр QPel формата : Нет
Параметр GMC формата : 3 точки перехода
Параметр матрицы формата : Default (H.263)
Идентификатор кодека : XVID
Идентификатор кодека/Подсказка : XviD
Продолжительность : 1 ч. 39 м.
Битрейт : 1190 Кбит/сек
Ширина : 720 пикселей
Высота : 408 пикселей
Соотношение сторон : 16:9
Частота кадров : 29,970 кадров/сек
Цветовое пространство : YUV
Субдискретизация насыщенности : 4:2:0
Битовая глубина : 8 бит
Тип развёртки : Прогрессивная
Метод сжатия : С потерями
Бит/(Пиксели*Кадры) : 0.135
Размер потока : 851 Мбайт (85%)
Библиотека кодирования : XviD 64

Аудио
Идентификатор : 1
Формат : MPEG Audio
Версия формата : Version 1
Профиль формата : Layer 3
Режим : Joint stereo
Идентификатор кодека : 55
Идентификатор кодека/Подсказка : MP3
Продолжительность : 1 ч. 39 м.
Вид битрейта : Постоянный
Битрейт : 192 Кбит/сек
Каналы : 2 канала
Частота : 48,0 КГц
Метод сжатия : С потерями
Размер потока : 137 Мбайт (14%)
Выравнивание : Соединение по промежуткам
Продолжительность промежутка : 24 мс. (0,72 видеокадр)
Библиотека кодирования : LAME3.98.2
1
00:01:25,871 --> 00:01:27,287
<i>Дорогая Алисия,</i>

2
00:01:27,764 --> 00:01:29,764
<i>Меня зовут Эрда.</i>

3
00:01:30,287 --> 00:01:32,287
<i>Я смотрительница "Лимбо",</i>

4
00:01:32,787 --> 00:01:37,237
<i>маленького и красивого приюта,
в котором мы заботимся о детях,</i>

5
00:01:37,684 --> 00:01:42,031
<i>страдающих от неизвестной
и трудноизлечимой болезни.</i>

6
00:01:43,248 --> 00:01:47,115
<i>К сожалению, в последние несколько месяцев</i>

7
00:01:47,615 --> 00:01:52,423
<i>смертность среди наших детей
увеличилась, хотя многих смертей</i>

8
00:01:52,923 --> 00:01:54,923
<i>можно было бы избежать.</i>

9
00:01:56,425 --> 00:01:59,497
<i>Мы знаем вас как отличного журналиста...</i>

10
00:02:02,997 --> 00:02:04,585
<i>и хотели бы пригласить вас...</i>

11
00:02:46,207 --> 00:02:52,276
<i>...Быть может, вы сможете помочь нам
в нашей борьбе против сил зла.</i>

12
00:02:53,282 --> 00:02:54,776
<i>Да благословит вас Бог!</i>

13
00:02:54,914 --> 00:02:56,698
- Дай мне матэ.
- Не дам.

14
00:02:56,711 --> 00:02:58,041
И надолго ты собираешься?

15
00:02:58,349 --> 00:03:00,720
- Дай мне матэ!
- Да не дам я тебе!

16
00:03:01,220 --> 00:03:03,216
Пока не знаю...

17
00:03:03,216 --> 00:03:05,720
Может, на несколько дней.
Два, три...

18
00:03:05,797 --> 00:03:06,910
А может, на две недели.

19
00:03:06,938 --> 00:03:09,826
К черту на кулички?
Я поеду с тобой.

20
00:03:09,846 --> 00:03:11,894
Нет! Как ты поедешь? А малышка?


Внимание! AdBlock блокирует показ скриншотов, все вопросы к разработчикам )))
Трекер:  [ 02-Янв-2015 14:30 ]

  

Скачать .torrent

Размер .torrent файла 20 KB


Размер: 998 MB
Хэш (hash) релиза: 102bc68e3c0ce24f40013f25cdd5134a27e95c76
Подписка на обновления:

Еще никто не оставлял запись к записи скачать торрент Лимбо Limbo . Будь первым!

!Обратная связь