Скачать через торрент Лимбо Limbo Фильм бесплатно в хорошем качестве torrent

Скачивайте на UnionPeer.org фильмы через торрент без регистрации. Новинки кино в хорошем качестве через торрент. На UnionPeer.org можно скачать через торрент фильмы 2014 и 2015 годов. Самые новые фильмы.

Скачать торрент Лимбо Limbo бесплатно через .torrent фильм мультфильм сериал

Статистика раздачи
Размер:  1.36 GB   |    Зарегистрирован:  9 лет 1 месяц   |    .torrent скачан:  47 раз   |   
Раздают:  1  
 

Скачать Лимбо / Limbo (Иван Ноэль / Iván Noel) [2013, Аргентина, комедия, мистика, ужасы, HDRip] VO (Прошин) + Sub Rus + Original Spa через torrent

 
 
Автор Сообщение

Galfimbul

avatar Galfimbul


Лимбо / Limbo

Страна: Аргентина
Жанр: комедия, мистика, ужасы
Год выпуска: 2013
Продолжительность: 01:39:56

Перевод: одноголосый закадровый (Вячеслав Прошин)
Cубтитры: русские (Алексей Крылов aka rrrtttsss aka prostotak)
Оригинальная аудиодорожка: испанский

Режиссер: Иван Ноэль / Iván Noel

В ролях: Анна-Мария Джунта, Тото Муньос, Сабрина Рамос, Лауро Верон и др.

Описание: Черная вампирская комедия. "Лимбо" - уединенная колония, в которой живут дети-вампиры в возрасте от 4 до 120 лет, ставшие жертвами бессовестных взрослых вампиров. О них заботится глубоко религиозная пожилая медсестра, которая всю свою жизнь посвятила поиску "потерянных душ", чтобы вырастить их в своей колонии для воплощения божественной воли по... созданию новой расы людей путем "естественного клонирования" (которое подразумевает, что люди превратятся в вампиров после того, как будут укушены ее подопечными). Чтобы помочь в осуществлении этих планов и защитить детей от "людей в черном", возглавляемых сыном писателя Брэма Стокера, которому противостоит юный внук графа Дракулы, она приглашает в колонию известную журналистку Алисию Делаторре...

Доп. информация: Информация о фильме на IMDB - http://www.imdb.com/title/tt2945892/ (год выпуска фильма на IMDB указан ошибочно, режиссер начал возить его по различным фестивалям в 2013 году, а выложил для скачки и заказа на носителях на своем сайте - в 2014 году).
Приобрести фильм в HD-качестве в цифровом формате за смешные 10 долларов можно на сайте режиссера Ивана Ноэля - http://www.noelfilms.com/

Сэмпл: http://multi-up.com/1025523

Качество видео: HDRip
Формат видео: AVI

Видео: 720x400 (1.80:1), 29.970 fps, XviD build 62 ~1550 kbps avg, 0.18 bit/pixel
Аудио 1: 48 kHz, MPEG Layer 3, 2 ch, ~192.00 kbps avg (русский)
Аудио 2: 48 kHz, MPEG Layer 3, 2 ch, ~192.00 kbps avg (испанский)
Формат субтитров: softsub (SRT)
Общее
Полное имя : H:\SEED\Limbo (2013) ru\Limbo (2013) ru.avi
Формат : AVI
Формат/Информация : Audio Video Interleave
Размер файла : 1,36 Гбайт
Продолжительность : 1 ч. 39 м.
Общий поток : 1953 Кбит/сек
Программа кодирования : VirtualDubMod 1.5.10.2 (build 2542/release)
Библиотека кодирования : VirtualDubMod build 2542/release

Видео
Идентификатор : 0
Формат : MPEG-4 Visual
Профиль формата : Advanced Simple@L5
Параметр BVOP формата : Нет
Параметр QPel формата : Нет
Параметр GMC формата : Без точки перехода
Параметр матрицы формата : Default (MPEG)
Идентификатор кодека : XVID
Идентификатор кодека/Подсказка : XviD
Продолжительность : 1 ч. 39 м.
Битрейт : 1551 Кбит/сек
Ширина : 720 пикселей
Высота : 400 пикселей
Соотношение сторон : 16:9
Частота кадров : 29,970 кадров/сек
Цветовое пространство : YUV
Субдискретизация насыщенности : 4:2:0
Битовая глубина : 8 бит
Тип развёртки : Прогрессивная
Метод сжатия : С потерями
Бит/(Пиксели*Кадры) : 0.180
Размер потока : 1,08 Гбайт (79%)
Библиотека кодирования : XviD 62

Аудио #1
Идентификатор : 1
Формат : MPEG Audio
Версия формата : Version 1
Профиль формата : Layer 3
Режим : Joint stereo
Идентификатор кодека : 55
Идентификатор кодека/Подсказка : MP3
Продолжительность : 1 ч. 39 м.
Вид битрейта : Постоянный
Битрейт : 192 Кбит/сек
Каналы : 2 канала
Частота : 48,0 КГц
Метод сжатия : С потерями
Размер потока : 137 Мбайт (10%)
Выравнивание : Соединение по промежуткам
Продолжительность промежутка : 33 мс. (1,00 видеокадр)
Время предзагрузки промежутка : 504 мс.

Аудио #2
Идентификатор : 2
Формат : MPEG Audio
Версия формата : Version 1
Профиль формата : Layer 3
Режим : Joint stereo
Идентификатор кодека : 55
Идентификатор кодека/Подсказка : MP3
Продолжительность : 1 ч. 39 м.
Вид битрейта : Постоянный
Битрейт : 192 Кбит/сек
Каналы : 2 канала
Частота : 48,0 КГц
Метод сжатия : С потерями
Размер потока : 137 Мбайт (10%)
Выравнивание : Разделение по промежуткам
Продолжительность промежутка : 33 мс. (1,00 видеокадр)
Время предзагрузки промежутка : 500 мс.
Библиотека кодирования : LAME3.98.2
1
00:01:25,871 --> 00:01:27,287
<i>Дорогая Алисия,</i>

2
00:01:27,764 --> 00:01:29,764
<i>Меня зовут Эрда.</i>

3
00:01:30,287 --> 00:01:32,287
<i>Я смотрительница "Лимбо",</i>

4
00:01:32,787 --> 00:01:37,237
<i>маленького и красивого приюта,
в котором мы заботимся о детях,</i>

5
00:01:37,684 --> 00:01:42,031
<i>страдающих от неизвестной
и трудноизлечимой болезни.</i>

6
00:01:43,248 --> 00:01:47,115
<i>К сожалению,
в последние несколько месяцев</i>

7
00:01:47,615 --> 00:01:52,423
<i>смертность среди наших детей
увеличилась, хотя многих смертей</i>

8
00:01:52,923 --> 00:01:54,923
<i>можно было бы избежать.</i>

9
00:01:56,425 --> 00:01:59,497
<i>Мы знаем вас
как отличного журналиста...</i>

10
00:02:02,997 --> 00:02:04,585
<i>и хотели бы пригласить вас...</i>

11
00:02:46,207 --> 00:02:52,276
<i>...Быть может, вы сможете помочь нам
в нашей борьбе против сил зла.</i>

12
00:02:53,282 --> 00:02:54,776
<i>Да благословит вас Бог!</i>

13
00:02:54,914 --> 00:02:56,698
- Дай мне матэ.
- Не дам.

14
00:02:56,711 --> 00:02:58,041
И надолго ты собираешься?

15
00:02:58,349 --> 00:03:00,720
- Дай мне матэ!
- Да не дам я тебе!

16
00:03:01,220 --> 00:03:03,216
Пока не знаю...

17
00:03:03,216 --> 00:03:05,720
Может, на несколько дней.
Два, три...

18
00:03:05,797 --> 00:03:06,910
А может, на две недели.

19
00:03:06,938 --> 00:03:09,826
К черту на кулички?
Я поеду с тобой.

20
00:03:09,846 --> 00:03:11,894
Нет! Куда ты поедешь?
А малышка?
Внимание! Торрент перезалит 9.01.2014 в связи с добавлением русской озвучки.

Внимание! AdBlock блокирует показ скриншотов, все вопросы к разработчикам )))
Трекер:  [ 09-Янв-2015 21:00 ]

  

Скачать .torrent

Размер .torrent файла 14 KB


Размер: 1.36 GB
Хэш (hash) релиза: 2c920846456db3a2401501c5de43b8199401da6a
Подписка на обновления:

Еще никто не оставлял запись к записи скачать торрент Лимбо Limbo . Будь первым!

!Обратная связь