Скачать через торрент Оставшийся The Remaining Фильм бесплатно в хорошем качестве torrent

Скачивайте на UnionPeer.org фильмы через торрент без регистрации. Новинки кино в хорошем качестве через торрент. На UnionPeer.org можно скачать через торрент фильмы 2014 и 2015 годов. Самые новые фильмы.

Скачать торрент Оставшийся The Remaining бесплатно через .torrent фильм мультфильм сериал

Статистика раздачи
Размер:  1.46 GB   |    Зарегистрирован:  9 лет 1 месяц   |    .torrent скачан:  98 раз   |   
Раздают:  1  
 

Скачать Оставшийся / The Remaining (Кэйси Ла Скала / Casey La Scala) [2014, США, Ужасы, триллер, BDRip] DVO (DeadSno & den904) через torrent

 
 
Автор Сообщение

Galfimbul

avatar Galfimbul


Оставшийся / The Remaining
Страна: США
Жанр: Ужасы, триллер
Год выпуска: 2014
Продолжительность: 01:27:50
Перевод: Любительский (двухголосый закадровый) [DeadSno & den904]
Cубтитры: нет
Режиссер: Кэйси Ла Скала / Casey La Scala
В ролях: Джонни Пакар, Шон Сайпос, Брайан Дечарт, Алекса ПенаВега, Италиа Риччи, Лиз Е. Морган, Джон Пайпер-Фергюсон, Ким Пачеко, Хейли Ловитт, Эрин Мерфи
Описание: Несколько молодых людей собираются вместе, чтобы отпраздновать свадьбу двух своих друзей. Во время празднования происходит череда катастрофических событий, которая превращает празднование в борьбу не на жизнь, а на смерть. Герои отчаянно сражаются за свое убежище, за свои жизни с врагом, которого они никогда не встречали…
Доп. информация: из звуковой дорожки была убрана реклама стороннего ресурса
Sample | IMDB | КиноПоиск
Тип релиза: BDRip [исх. The.Remaining.2014.1080p.BluRay.REMUX.AVC.DTS-HD.MA.5.1-RARBG]
Формат видео: AVI
Видео: 720x384 (1.88:1), 23.976 fps, XviD build 50, 1928 kbps avg, 0.29 bit/pixel
Аудио: 48 kHz, AC3 Dolby Digital, 3/2 (L,C,R,l,r) + LFE ch, 448.00 kbps avg [Russian_DVO]
Релиз группы:[url=...1677970] [/url]
General
Complete name : D:\Мои релизы\The Remaining_BDRip_RG_All_Films.avi
Format : AVI
Format/Info : Audio Video Interleave
File size : 1.46 GiB
Duration : 1h 27mn
Overall bit rate : 2 386 Kbps
Writing application : VirtualDubMod 1.5.10.3 | www.virtualdub-fr.org || (build 2550/release)
Writing library : VirtualDubMod build 2550/release

Video
ID : 0
Format : MPEG-4 Visual
Format profile : Advanced Simple@L5
Format settings, BVOP : Yes
Format settings, QPel : No
Format settings, GMC : No warppoints
Format settings, Matrix : Custom
Codec ID : XVID
Codec ID/Hint : XviD
Duration : 1h 27mn
Bit rate : 1 929 Kbps
Width : 720 pixels
Height : 384 pixels
Display aspect ratio : 1.875
Frame rate : 23.976 fps
Color space : YUV
Chroma subsampling : 4:2:0
Bit depth : 8 bits
Scan type : Progressive
Compression mode : Lossy
Bits/(Pixel*Frame) : 0.291
Stream size : 1.18 GiB (81%)
Writing library : XviD 1.2.1 (UTC 2008-12-04)

Audio
ID : 1
Format : AC-3
Format/Info : Audio Coding 3
Mode extension : CM (complete main)
Codec ID : 2000
Duration : 1h 27mn
Bit rate mode : Constant
Bit rate : 448 Kbps
Channel(s) : 6 channels
Channel positions : Front: L C R, Side: L R, LFE
Sampling rate : 48.0 KHz
Bit depth : 16 bits
Compression mode : Lossy
Stream size : 281 MiB (19%)
Alignment : Split accross interleaves
Interleave, duration : 42 ms (1.00 video frame)
Interleave, preload duration : 500 ms


Внимание! AdBlock блокирует показ скриншотов, все вопросы к разработчикам )))
Трекер:  [ 19-Янв-2015 08:00 ]

  

Скачать .torrent

Размер .torrent файла 15 KB


Размер: 1.46 GB
Хэш (hash) релиза: 680ad29265469c7e5b4446fb0bc4871503f382fe
Подписка на обновления:

Торренты, похожие на Оставшийся The Remaining скачать торрент

Форум Название Автор Размер S L Добавлен
Зарубежные фильмы до 2016 ·· Оставшиеся / Оставшийся / The Remaining (Кэйси Ла Скала / Casey La Scala) [2014, США, Ужасы, триллер, BDRip 720p] MVO + Sub Eng + Original Eng Galfimbul 60793783305.66 GB 0 0 1423509179

22:12

9-Фев-15

Зарубежные фильмы 2016-2019 (Новинки зарубежного кино) ·%· Оставшийся / The Remaining (2014) BDRip 1080p | P | Лицензия Galfimbul 1086995809810.12 GB 0 0 1530249014

08:10

29-Июн-18

Зарубежные фильмы до 2016 ·%· Оставшийся / The Remaining (Кэйси Ла Скала / Casey La Scala) [2014, США, Ужасы, триллер, DVD9] R5 MVO + Sub Rus + Original Eng Galfimbul 54724341765.1 GB 0 0 1529006500

23:01

14-Июн-18

Зарубежные фильмы 2016-2019 (Новинки зарубежного кино) ·· Останки / The Remains (Томас Делла Белл) [2016, ужасы, триллер, HDRip] Galfimbul 15670319601.46 GB 0 0 1487331705

14:41

17-Фев-17

Зарубежные фильмы до 2016 ·· Оставшийся / The Remaining (Кэйси Ла Скала / Casey La Scala) [2014, США, Ужасы, триллер, HDRip] Лицензия Galfimbul 14678528001.37 GB 0 0 1423351591

02:26

8-Фев-15

Зарубежные фильмы до 2016 ·· Оставшийся / The Remaining (Кэйси Ла Скала / Casey La Scala) [2014, США, Ужасы, триллер, BDRip 720p] Лицензия Galfimbul 60793783305.66 GB 0 0 1423351586

02:26

8-Фев-15

Зарубежные фильмы до 2016 ·· Оставшийся / The Remaining (Кэйси Ла Скала) [2014, Фантастика, ужасы, триллер, BDRip 720p] Galfimbul 56920392755.3 GB 0 0 1421607424

21:57

18-Янв-15

Зарубежные фильмы до 2016 ·· Оставшийся / The Remaining (Кэйси Ла Скала) [2014, Фантастика, ужасы, триллер, HDRip-AVC] Galfimbul 15623494511.46 GB 0 0 1421606262

21:37

18-Янв-15

Зарубежные фильмы до 2016 ·· Оставшийся / The Remaining (Кэйси Ла Скала) [2014, Фантастика, ужасы, триллер, HDRip] Galfimbul 779362304743 MB 0 0 1421606254

21:37

18-Янв-15

Зарубежные фильмы 2016-2019 (Новинки зарубежного кино) ·· Останки / Remains of the Walking Dead (Колин Тхейс) [2011, ужасы, боевик, драма, HDRip] Galfimbul 14496113701.35 GB 0 0 1421475686

09:21

17-Янв-15

Зарубежные фильмы 2016-2019 (Новинки зарубежного кино) ·· Останки / Remains of the Walking Dead (Колин Тхейс) [2011, ужасы, боевик, драма, BDRip 1080p] Galfimbul 75898357907.07 GB 0 0 1395223285

13:01

19-Мар-14

Зарубежные фильмы 2016-2019 (Новинки зарубежного кино) ·· Останки / Remains of the Walking Dead (Колин Тхейс) [2011, ужасы, боевик, драма, BDRip 720p] Galfimbul 50079627394.66 GB 0 0 1395223278

13:01

19-Мар-14

Еще никто не оставлял запись к записи скачать торрент Оставшийся The Remaining . Будь первым!

!Обратная связь