Скачать через торрент Убить гонца Kill the Messenger Фильм бесплатно в хорошем качестве torrent

Скачивайте на UnionPeer.org фильмы через торрент без регистрации. Новинки кино в хорошем качестве через торрент. На UnionPeer.org можно скачать через торрент фильмы 2014 и 2015 годов. Самые новые фильмы.

Скачать торрент Убить гонца Kill the Messenger бесплатно через .torrent фильм мультфильм сериал

Статистика раздачи
Размер:  3.59 GB   |    Зарегистрирован:  6 лет 10 месяцев   |    .torrent скачан:  105 раз   |   
Раздают:  1  
   
 
Автор Сообщение

Galfimbul

avatar Galfimbul


Убить гонца / Kill the Messenger
Страна: США
Жанр: триллер, драма, криминал, детектив, биография
Год выпуска: 2014
Продолжительность: 01:51:55

Перевод: Профессиональный (дублированный) | LINE
Cубтитры: английские
Оригинальная аудиодорожка: английский

Режиссер: Майкл Куэста / Michael Cuesta

В ролях: Джереми Реннер, Роберт Патрик, Роберт Пралго, Хаджи Голайтли, Тед Хукаби, Мэри Элизабет Уинстэд, Лукас Хеджес, Розмари ДеУитт, Мэттью Линтц, Паркер Дуглас

Описание: Репортер, собирая материал для статьи, попадает в нестандартную ситуацию: он находит секретные файлы ЦРУ, в которых четко прописано причастие госорганов к транспортировке кокаина в особо крупных размерах в Калифорнию. Несмотря на все неприятности, последующие за разоблачением, публикация выходит в одном из самых известных журналов США
Существование репортера становится нежелательным для всех, кто хоть как-то соприкасался с «кокаиновым» делом...



Исходник: Kill the Messenger 2014 1080p Blu-ray AVC DTS-HD MA 5.1-LAZERS
Качество видео: BDRip-AVC | | sample
Формат видео: MKV
Видео кодек: x264
Видео: AVC 1152x480 (2.40:1), 23.976 fps, ~3950 Kbps, 0.30 bit/pixel
Аудио #1: Russian AC3 2ch 48kHz 192Kbps | Dub LINE
Аудио #2: English AC3 6ch 48kHz 448Kbps | Original
Формат субтитров: softsub (SRT)
Главы: есть
--[Information] [25.02.2015 7:28:06] x264 [info]: frame I:1260 Avg QP:16.48 size: 78106
--[Information] [25.02.2015 7:28:06] x264 [info]: frame P:30047 Avg QP:18.31 size: 32855
--[Information] [25.02.2015 7:28:06] x264 [info]: frame B:129854 Avg QP:18.44 size: 17166
--[Information] [25.02.2015 7:28:06] x264 [info]: consecutive B-frames: 1.4% 1.3% 3.9% 14.5% 16.7% 37.3% 9.0% 3.9% 3.4% 2.4% 1.9% 1.7% 1.3% 0.8% 0.4%
--[Information] [25.02.2015 7:28:06] x264 [info]: kb/s:3948.96
General
Complete name : E:\...\Kill.the.Messenger.2014.BDRip.x264.AC3.Rus.LINE.Eng-E76.mkv
Format : Matroska
Format version : Version 2
File size : 3.59 GiB
Duration : 1h 51mn
Overall bit rate : 4 591 Kbps
Movie name : Kill.the.Messenger.2014.BDRip.x264.AC3.Rus.LINE.Eng-E76
Encoded date : UTC 2015-02-25 06:12:07
Writing application : mkvmerge v7.0.0 ('Where We Going') 64bit built on Jun 9 2014 15:16:27
Writing library : libebml v1.3.0 + libmatroska v1.4.1
Attachment : Yes

Video
ID : 1
Format : AVC
Format/Info : Advanced Video Codec
Format profile : High@L4.1
Format settings, CABAC : Yes
Format settings, ReFrames : 12 frames
Codec ID : V_MPEG4/ISO/AVC
Duration : 1h 51mn
Bit rate : 3 860 Kbps
Width : 1 152 pixels
Height : 480 pixels
Display aspect ratio : 2.40:1
Frame rate mode : Constant
Frame rate : 24.000 fps
Color space : YUV
Chroma subsampling : 4:2:0
Bit depth : 8 bits
Scan type : Progressive
Bits/(Pixel*Frame) : 0.291
Stream size : 3.02 GiB (84%)
Title : Kill the Messenger (2014)
Writing library : x264 core 144 r2525kMod 40bb568
Encoding settings : cabac=1 / ref=12 / deblock=1:-3:-3 / analyse=0x3:0x113 / me=umh / subme=11 / psy=1 / fade_compensate=0.00 / psy_rd=1.00:0.00 / mixed_ref=1 / me_range=48 / chroma_me=1 / trellis=2 / 8x8dct=1 / cqm=0 / deadzone=21,11 / fast_pskip=1 / chroma_qp_offset=-2 / threads=6 / lookahead_threads=1 / sliced_threads=0 / nr=0 / decimate=1 / interlaced=0 / bluray_compat=0 / constrained_intra=0 / fgo=0 / bframes=14 / b_pyramid=2 / b_adapt=2 / b_bias=0 / direct=1 / weightb=1 / open_gop=0 / weightp=2 / keyint=240 / keyint_min=24 / scenecut=40 / intra_refresh=0 / rc_lookahead=0 / rc=crf / mbtree=0 / crf=18.7500 / qcomp=0.60 / qpmin=0 / qpmax=69 / qpstep=4 / vbv_maxrate=62500 / vbv_bufsize=78125 / crf_max=0.0 / nal_hrd=none / filler=0 / ip_ratio=1.40 / pb_ratio=1.20 / aq=3:1.00 / zones=151200,161160,q=30
Language : English
Default : Yes
Forced : No
Matrix coefficients : BT.709

Audio #1
ID : 2
Format : AC-3
Format/Info : Audio Coding 3
Mode extension : CM (complete main)
Format settings, Endianness : Big
Codec ID : A_AC3
Duration : 1h 51mn
Bit rate mode : Constant
Bit rate : 192 Kbps
Channel(s) : 2 channels
Channel positions : Front: L R
Sampling rate : 48.0 KHz
Bit depth : 16 bits
Compression mode : Lossy
Stream size : 154 MiB (4%)
Title : Dub LINE
Language : Russian
Default : Yes
Forced : No

Audio #2
ID : 3
Format : AC-3
Format/Info : Audio Coding 3
Mode extension : CM (complete main)
Format settings, Endianness : Big
Codec ID : A_AC3
Duration : 1h 51mn
Bit rate mode : Constant
Bit rate : 448 Kbps
Channel(s) : 6 channels
Channel positions : Front: L C R, Side: L R, LFE
Sampling rate : 48.0 KHz
Bit depth : 16 bits
Compression mode : Lossy
Stream size : 359 MiB (10%)
Title : Original
Language : English
Default : No
Forced : No

Text
ID : 4
Format : UTF-8
Codec ID : S_TEXT/UTF8
Codec ID/Info : UTF-8 Plain Text
Language : English
Default : No
Forced : No

Menu
00:00:00.000 : en:00:00:00.000
00:09:41.791 : en:00:09:41.791
...
01:42:57.000 : en:01:42:57.000
=> [url=...866172]Новые релизы в AVC[/url] | | [url=...3177622]Заказ рипов в AVC[/url] <=

Внимание! AdBlock блокирует показ скриншотов, все вопросы к разработчикам )))
Трекер:  [ 25-Фев-2015 21:30 ]

  

Скачать .torrent

Размер .torrent файла 18 KB


Размер: 3.59 GB
Хэш (hash) релиза: 04052566b532424b3ea6d8db8ea548b6e6820b83
Подписка на обновления:

Торренты, похожие на Убить гонца Kill the Messenger скачать торрент

Форум Название Автор Размер S L Добавлен
Зарубежные фильмы до 2016 ·· Убить гонца / Kill the Messenger (Майкл Куэста / Michael Cuesta) [2014, США, триллер, драма, криминал, биография, BDRip] Dub (R5) + Original Eng + subs (Rus, Rus Forced, Eng) Galfimbul 23437966252.18 GB 0 0 1444845786

21:03

14-Окт-15

Зарубежные фильмы до 2016 ·· Убить гонца / Kill the Messenger (Майкл Куэста / Michael Cuesta) [2014, США, Триллер, драма, криминал, детектив, биография, BDRip 720р] Galfimbul 70867799346.6 GB 0 0 1433485341

09:22

5-Июн-15

Зарубежные фильмы до 2016 ·· Убить гонца / Kill the Messenger (Майкл Куэста / Michael Cuesta) [2014, США, Триллер, драма, криминал, детектив, биография, BDRip 1080р] Galfimbul 1217399113111.34 GB 0 0 1433483412

08:50

5-Июн-15

Зарубежные фильмы до 2016 ·· Убить гонца / Kill the Messenger (Майкл Куэста / Michael Cuesta) [2014, США, Триллер, драма, криминал, детектив, биография, HDRip] Лицензия Galfimbul 15647744001.46 GB 0 0 1433409594

12:19

4-Июн-15

Зарубежные фильмы до 2016 ·· Убить гонца / Kill the Messenger (Майкл Куэста / Michael Cuesta) [2014, США, Триллер, драма, криминал, детектив, биография, HDRip] Dub (Line) Galfimbul 15638548481.46 GB 0 0 1424942771

12:26

26-Фев-15

Зарубежные фильмы до 2016 ·· Убить гонца / Kill the Messenger (Майкл Куэста / Michael Cuesta) [2014, США, триллер, BDRip-AVC] Чистый звук Galfimbul 22807702752.12 GB 0 0 1424615339

17:28

22-Фев-15

Зарубежные фильмы до 2016 ·· Убить гонца / Kill the Messenger (Майкл Куэста / Michael Cuesta) [2014, США, триллер, BDRip 720p] Dub (Line) + Sub Eng + Original Eng Galfimbul 69253768746.45 GB 0 0 1424609146

15:45

22-Фев-15

Зарубежные фильмы до 2016 ·· Убить гонца / Kill the Messenger (Майкл Куэста / Michael Cuesta) [2014, США, триллер, драма, криминал, детектив, биография, BDRip 1080p] Чистый звук Galfimbul 1228182712611.44 GB 0 0 1424555350

00:49

22-Фев-15

Зарубежные фильмы до 2016 ·· Убить гонца / Kill the Messenger (Майкл Куэста / Michael Cuesta) [2014, США, триллер, драма, криминал, детектив, биография, BDRip 720p] Чистый звук Galfimbul 61886041345.76 GB 0 0 1424544883

21:54

21-Фев-15

Зарубежные фильмы до 2016 ·· Убить гонца / Kill the Messenger (Майкл Куэста / Michael Cuesta) [2014, США, триллер, драма, криминал, детектив, биография, HDRip] Чистый звук Galfimbul 15638548481.46 GB 0 0 1424541852

21:04

21-Фев-15

Зарубежные фильмы до 2016 ·· Убить гонца / Kill the Messenger (Майкл Куэста / Michael Cuesta) [2014, США, триллер, драма, криминал, детектив, биография, HDRip-AVC] Galfimbul 23394394752.18 GB 0 0 1422592086

07:28

30-Янв-15

Зарубежные фильмы до 2016 ·· Убить гонца / Kill the Messenger (Майкл Куэста / Michael Cuesta) [2014, США, триллер, драма, криминал, детектив, биография, BDRip 1080p] Galfimbul 1212037907111.29 GB 0 0 1422542032

17:33

29-Янв-15

Зарубежные фильмы до 2016 ·· Убить гонца / Kill the Messenger (Майкл Куэста / Michael Cuesta) [2014, США, триллер, драма, криминал, детектив, биография, HDRip] DVO (RAIM & GUGU) + Original Eng Galfimbul 22031196162.05 GB 0 0 1422506717

07:45

29-Янв-15

Зарубежные фильмы до 2016 ·· Убить гонца / Kill the Messenger (Майкл Куэста / Michael Cuesta) [2014, США, триллер, драма, криминал, детектив, биография, HDRip] Galfimbul 15638548481.46 GB 0 0 1422475470

23:04

28-Янв-15

Еще никто не оставлял запись к записи скачать торрент Убить гонца Kill the Messenger . Будь первым!

!Обратная связь