Скачать через торрент Женский дом GirlHouse Фильм бесплатно в хорошем качестве torrent

Скачивайте на UnionPeer.org фильмы через торрент без регистрации. Новинки кино в хорошем качестве через торрент. На UnionPeer.org можно скачать через торрент фильмы 2014 и 2015 годов. Самые новые фильмы.

Скачать торрент Женский дом GirlHouse бесплатно через .torrent фильм мультфильм сериал

Статистика раздачи
Размер:  3.21 GB   |    Зарегистрирован:  8 лет 11 месяцев   |    .torrent скачан:  184 раза   |   
Раздают:  1  
 

Скачать Женский дом / GirlHouse (Тревор Мэтьюз) [2014, ужасы, триллер, WEB-DL 720p] через torrent

 
 
Автор Сообщение

Galfimbul

avatar Galfimbul


Название: Женский дом
Оригинальное название: GirlHouse
Год выпуска: 2014
Жанр: ужасы, триллер
Режиссер: Тревор Мэтьюз
В ролях: Эли Кобрин, Адам ДиМарко, Слэйн, Элисон Бэт, Элисия Ротару, Элис Хантер, Чести Бальестерос, Николь Фокс, Зулейка Силвер, Уэсли МакИннес

О фильме: Молодая студентка, отчаянно нуждающаяся в деньгах на обучение, начинает работу в доме, откуда ведутся трансляции для взрослых. Но стоит обиженному фанату узнать его местоположение, как ей приходится бороться за свою жизнь.



Выпущено: Канада / Brookstreet Pictures
Продолжительность: 01:41:04
Озвучивание: Любительское (двухголосое) [Sunny-Films]

Файл
Формат: MKV
Качество: WEB-DL 720p
Видео: 3886 kb/s, 1280x536
Аудио: Russian: AC3, 192 kb/s (2 ch) / English: AC3, 384 kb/s (6 ch)
Субтитры: English
Format : Matroska
Format version : Version 4 / Version 2
File size : 3.21 GiB
Duration : 1h 41mn
Overall bit rate : 4 553 Kbps
Encoded date : UTC 2015-03-04 21:06:50
Writing application : mkvmerge v6.1.0 ('Old Devil') built on Mar 4 2013 09:10:42
Writing library : libebml v1.3.0 + libmatroska v1.4.0

Video
ID : 1
Format : AVC
Format/Info : Advanced Video Codec
Format profile : [email protected]
Format settings, CABAC : No
Format settings, ReFrames : 2 frames
Codec ID : V_MPEG4/ISO/AVC
Duration : 1h 41mn
Bit rate : 3 886 Kbps
Width : 1 280 pixels
Height : 536 pixels
Display aspect ratio : 2.40:1
Frame rate : 23.976 fps
Color space : YUV
Chroma subsampling : 4:2:0
Bit depth : 8 bits
Scan type : Progressive
Bits/(Pixel*Frame) : 0.236
Stream size : 2.74 GiB (85%)
Language : English
Default : Yes
Forced : No
Color primaries : BT.709-5, BT.1361, IEC 61966-2-4, SMPTE RP177
Transfer characteristics : BT.709-5, BT.1361
Matrix coefficients : BT.709-5, BT.1361, IEC 61966-2-4 709, SMPTE RP177

Audio #1
ID : 2
Format : AC-3
Format/Info : Audio Coding 3
Mode extension : CM (complete main)
Format settings, Endianness : Big
Codec ID : A_AC3
Duration : 1h 41mn
Bit rate mode : Constant
Bit rate : 192 Kbps
Channel(s) : 2 channels
Channel positions : Front: L R
Sampling rate : 48.0 KHz
Bit depth : 16 bits
Compression mode : Lossy
Stream size : 139 MiB (4%)
Language : Russian
Default : Yes
Forced : No

Audio #2
ID : 3
Format : AC-3
Format/Info : Audio Coding 3
Mode extension : CM (complete main)
Format settings, Endianness : Big
Codec ID : A_AC3
Duration : 1h 41mn
Bit rate mode : Constant
Bit rate : 384 Kbps
Channel(s) : 6 channels
Channel positions : Front: L C R, Side: L R, LFE
Sampling rate : 48.0 KHz
Bit depth : 16 bits
Compression mode : Lossy
Stream size : 278 MiB (8%)
Language : English
Default : No
Forced : No

Text
ID : 4
Format : UTF-8
Codec ID : S_TEXT/UTF8
Codec ID/Info : UTF-8 Plain Text
Language : English
Default : No
Forced : No

Menu
00:00:00.000 : en:Chapter 01
00:08:06.000 : en:Chapter 02
00:17:59.000 : en:Chapter 03
00:27:31.000 : en:Chapter 04
00:38:00.000 : en:Chapter 05
00:49:58.000 : en:Chapter 06
01:00:05.000 : en:Chapter 07
01:10:02.000 : en:Chapter 08
01:21:24.000 : en:Chapter 09
01:30:13.000 : en:Chapter 10
01:37:48.000 : en:Chapter 11


Внимание! AdBlock блокирует показ скриншотов, все вопросы к разработчикам )))
Трекер:  [ 05-Мар-2015 00:30 ]

  

Скачать .torrent

Размер .torrent файла 16 KB


Размер: 3.21 GB
Хэш (hash) релиза: a6dc9a44cd6a7e8cdceb523065cda5fe7198802e
Подписка на обновления:

Торренты, похожие на Женский дом GirlHouse скачать торрент

Форум Название Автор Размер S L Добавлен
Зарубежные фильмы 2016-2019 (Новинки зарубежного кино) ·· Женский дом / GirlHouse (Тревор Мэтьюз) [2014, ужасы, триллер, BDRip 1080p] Galfimbul 91948429418.56 GB 0 0 1493989960

16:12

5-Май-17

Зарубежные фильмы до 2016 ·· Женский дом / GirlHouse (Тревор Мэтьюз / Trevor Matthews) [2014, Канада, ужасы, триллер, BDRip-AVC] MVO (Sunny-Films) Galfimbul 778279632742 MB 0 0 1435651046

10:57

30-Июн-15

Зарубежные фильмы до 2016 ·· Женский дом / GirlHouse (Тревор Мэтьюз / Trevor Matthews) [2014, Канада, ужасы, триллер, BDRip 720p] MVO (Sunny-Films) + Sub Eng + Original Eng Galfimbul 52680749134.91 GB 0 0 1434753783

01:43

20-Июн-15

Зарубежные фильмы до 2016 ·· Женский дом / GirlHouse (Тревор Мэтьюз / Trevor Matthews) [2014, Канада, Ужасы, Триллер, WEB-DLRip] MVO (Sunny-Films) Galfimbul 14762496001.37 GB 0 0 1425586482

23:14

5-Мар-15

Зарубежные фильмы до 2016 ·· Женский дом / GirlHouse (Тревор Мэтьюз) [2014, ужасы, триллер, HDRip] Galfimbul 782256128746 MB 0 0 1425534897

08:54

5-Мар-15

Зарубежные фильмы до 2016 ·· Женский дом / GirlHouse (Тревор Мэтьюз) [2014, ужасы, триллер, WEB-DLRip] Galfimbul 15651061761.46 GB 0 0 1425503089

00:04

5-Мар-15

Еще никто не оставлял запись к записи скачать торрент Женский дом GirlHouse . Будь первым!

!Обратная связь