Скачать через торрент Женский дом GirlHouse Фильм бесплатно в хорошем качестве torrent

Скачивайте на UnionPeer.org фильмы через торрент без регистрации. Новинки кино в хорошем качестве через торрент. На UnionPeer.org можно скачать через торрент фильмы 2014 и 2015 годов. Самые новые фильмы.

Скачать торрент Женский дом GirlHouse бесплатно через .torrent фильм мультфильм сериал

Статистика раздачи
Размер:  1.37 GB   |    Зарегистрирован:  8 лет 11 месяцев   |    .torrent скачан:  118 раз   |   
Раздают:  1  
 

Скачать Женский дом / GirlHouse (Тревор Мэтьюз / Trevor Matthews) [2014, Канада, Ужасы, Триллер, WEB-DLRip] MVO (Sunny-Films) через torrent

 
 
Автор Сообщение

Galfimbul

avatar Galfimbul


Женский дом / GirlHouse

Страна: Канада
Жанр: Ужасы, Триллер
Год выпуска: 2014
Продолжительность: 01:41:04

Перевод: Любительский (многоголосый закадровый) Sunny-Films
Cубтитры: нет
Оригинальная аудиодорожка: нет

Режиссер: Тревор Мэтьюз / Trevor Matthews

В ролях: Эли Кобрин, Адам ДиМарко, Слэйн, Элисон Бэт, Элисия Ротару, Элис Хантер, Чести Бальестерос, Николь Фокс, Зулейка Силвер, Уэсли МакИннес

Описание: Молодая студентка, отчаянно нуждающаяся в деньгах на обучение, начинает работу в доме, откуда ведутся трансляции порно. Но стоит обиженному рукоблуду фанату узнать его местоположение, как ей приходится бороться за свою жизнь.

Доп. информация: Ы....

Сэмпл: http://multi-up.com/1036594

Качество видео: WEB-DLRip
Формат видео: AVI

Видео: 720x304 (2.37:1), 23.976 fps, XviD MPEG-4 ~1746 kbps avg, 0.33 bit/pixel
Аудио: 48 kHz, AC3 Dolby Digital, 2/0 (L,R) ch, ~192 kbps
Format : AVI
Format/Info : Audio Video Interleave
File size : 1.37 GiB
Duration : 1h 41mn
Overall bit rate : 1 947 Kbps
Writing application : VirtualDubMod 1.5.10.3 | www.virtualdub-fr.org || (build 2550/release)
Writing library : VirtualDubMod build 2550/release

Video
ID : 0
Format : MPEG-4 Visual
Format profile : Advanced Simple@L5
Format settings, BVOP : 2
Format settings, QPel : No
Format settings, GMC : No warppoints
Format settings, Matrix : Default (H.263)
Muxing mode : Packed bitstream
Codec ID : XVID
Codec ID/Hint : XviD
Duration : 1h 41mn
Bit rate : 1 746 Kbps
Width : 720 pixels
Height : 304 pixels
Display aspect ratio : 2.35:1
Frame rate : 23.976 fps
Color space : YUV
Chroma subsampling : 4:2:0
Bit depth : 8 bits
Scan type : Progressive
Compression mode : Lossy
Bits/(Pixel*Frame) : 0.333
Stream size : 1.23 GiB (90%)
Writing library : XviD 64

Audio
ID : 1
Format : AC-3
Format/Info : Audio Coding 3
Mode extension : CM (complete main)
Format settings, Endianness : Big
Codec ID : 2000
Duration : 1h 41mn
Bit rate mode : Constant
Bit rate : 192 Kbps
Channel(s) : 2 channels
Channel positions : Front: L R
Sampling rate : 48.0 KHz
Bit depth : 16 bits
Compression mode : Lossy
Stream size : 139 MiB (10%)
Alignment : Split accross interleaves
Interleave, duration : 42 ms (1.00 video frame)
Interleave, preload duration : 500 ms


Внимание! AdBlock блокирует показ скриншотов, все вопросы к разработчикам )))
Трекер:  [ 05-Мар-2015 23:00 ]

  

Скачать .torrent

Размер .torrent файла 14 KB


Размер: 1.37 GB
Хэш (hash) релиза: 7d897b5672613ec79efb698e2d7297e87a25298c
Подписка на обновления:

Торренты, похожие на Женский дом GirlHouse скачать торрент

Форум Название Автор Размер S L Добавлен
Зарубежные фильмы 2016-2019 (Новинки зарубежного кино) ·· Женский дом / GirlHouse (Тревор Мэтьюз) [2014, ужасы, триллер, BDRip 1080p] Galfimbul 91948429418.56 GB 0 0 1493989960

16:12

5-Май-17

Зарубежные фильмы до 2016 ·· Женский дом / GirlHouse (Тревор Мэтьюз / Trevor Matthews) [2014, Канада, ужасы, триллер, BDRip-AVC] MVO (Sunny-Films) Galfimbul 778279632742 MB 0 0 1435651046

10:57

30-Июн-15

Зарубежные фильмы до 2016 ·· Женский дом / GirlHouse (Тревор Мэтьюз / Trevor Matthews) [2014, Канада, ужасы, триллер, BDRip 720p] MVO (Sunny-Films) + Sub Eng + Original Eng Galfimbul 52680749134.91 GB 0 0 1434753783

01:43

20-Июн-15

Зарубежные фильмы до 2016 ·· Женский дом / GirlHouse (Тревор Мэтьюз) [2014, ужасы, триллер, HDRip] Galfimbul 782256128746 MB 0 0 1425534897

08:54

5-Мар-15

Зарубежные фильмы до 2016 ·· Женский дом / GirlHouse (Тревор Мэтьюз) [2014, ужасы, триллер, WEB-DL 720p] Galfimbul 34512157843.21 GB 0 0 1425505972

00:52

5-Мар-15

Зарубежные фильмы до 2016 ·· Женский дом / GirlHouse (Тревор Мэтьюз) [2014, ужасы, триллер, WEB-DLRip] Galfimbul 15651061761.46 GB 0 0 1425503089

00:04

5-Мар-15

Еще никто не оставлял запись к записи скачать торрент Женский дом GirlHouse . Будь первым!

!Обратная связь