Скачать через торрент Охотник The Hunter Фильм бесплатно в хорошем качестве torrent

Скачивайте на UnionPeer.org фильмы через торрент без регистрации. Новинки кино в хорошем качестве через торрент. На UnionPeer.org можно скачать через торрент фильмы 2014 и 2015 годов. Самые новые фильмы.

Скачать торрент Охотник The Hunter бесплатно через .torrent фильм мультфильм сериал

Статистика раздачи
Размер:  3.5 GB   |    Зарегистрирован:  3 года 6 месяцев   |    .torrent скачан:  257 раз   |   
Раздают:  1  
   
загрузка...
 
Автор Сообщение

Galfimbul

avatar Galfimbul


Охотники /The Hunters

Год выхода: 2013
Жанр: Приключения
Режиссер: Ниша Ганатра
В ролях: Робби Амелл, Алекса ПенаВега, Виктор Гарбер, Мишель Форбс, Кинэн Трэйси, Эрик Брекер, Кира Клавелл, Марк Ганиме

О фильме:
Семейство археологов разыскивает спрятанные по всему миру артефакты из легенд.



Страна: США
Студия: Arc Entertainment, Canadian Film or Video Production Tax Credit (CPTC), Content Media, Eh-Okay Productions, Province of British Columbia Film Incentive BC, Raindance Entertainment
Продолжительность: 01:25:28
Перевод: Профессиональный многоголосый (iTunes)

Файл
Кодек: MPEG-4 AVC
Качество: BDRip 720p
Видео: ~ 4.6 Mбит/с, 1280x720, 25.0 кадр/с
Звук: Русский (AC3, 6 ch, 384 Кбит/с), английский (DTS, 6 ch, 768 Кбит/с)
Субтитры: Отсутствуют
File: D:ВидеоOhotniki.20113.P.BDRip.720.mkv

General
Unique ID : 179103063885246202099613729713409038198 (0x86BDFED1AB8200909684D24A17C51776)
Complete name : D:ВидеоOhotniki.20113.P.BDRip.720.mkv
Format : Matroska
Format version : Version 4 / Version 2
File size : 3.50 GiB
Duration : 1h 25mn
Overall bit rate : 5 868 Kbps
Encoded date : UTC 2015-04-05 06:26:11
Writing application : mkvmerge v7.2.0 ('On Every Street') 64bit built on Sep 13 2014 15:52:10
Writing library : libebml v1.3.0 + libmatroska v1.4.1
DURATION : 01:25:28.704000000
NUMBER_OF_FRAMES : 160272
NUMBER_OF_BYTES : 246177792
_STATISTICS_WRITING_APP : mkvmerge v7.2.0 ('On Every Street') 64bit built on Sep 13 2014 15:52:10
_STATISTICS_WRITING_DATE_UTC : 2015-04-05 06:26:11
_STATISTICS_TAGS : BPS DURATION NUMBER_OF_FRAMES NUMBER_OF_BYTES

Video
ID : 1
Format : AVC
Format/Info : Advanced Video Codec
Format profile : High@L4.1
Format settings, CABAC : Yes
Format settings, ReFrames : 5 frames
Codec ID : V_MPEG4/ISO/AVC
Duration : 1h 25mn
Bit rate : 4 724 Kbps
Width : 1 280 pixels
Height : 720 pixels
Display aspect ratio : 16:9
Frame rate mode : Constant
Frame rate : 25.000 fps
Color space : YUV
Chroma subsampling : 4:2:0
Bit depth : 8 bits
Scan type : Progressive
Bits/(Pixel*Frame) : 0.205
Stream size : 2.75 GiB (78%)
Writing library : x264 core 142 r2491 24e4fed
Encoding settings : cabac=1 / ref=5 / deblock=1:0:0 / analyse=0x3:0x133 / me=umh / subme=7 / psy=1 / psy_rd=1.00:0.00 / mixed_ref=1 / me_range=16 / chroma_me=1 / trellis=1 / 8x8dct=1 / cqm=0 / deadzone=21,11 / fast_pskip=0 / chroma_qp_offset=-2 / threads=18 / lookahead_threads=3 / sliced_threads=0 / nr=0 / decimate=1 / interlaced=0 / bluray_compat=0 / constrained_intra=0 / bframes=3 / b_pyramid=2 / b_adapt=2 / b_bias=0 / direct=3 / weightb=1 / open_gop=0 / weightp=2 / keyint=250 / keyint_min=25 / scenecut=40 / intra_refresh=0 / rc_lookahead=50 / rc=2pass / mbtree=1 / bitrate=4724 / ratetol=1.0 / qcomp=0.60 / qpmin=0 / qpmax=69 / qpstep=4 / cplxblur=20.0 / qblur=0.5 / ip_ratio=1.40 / aq=1:1.00
Language : English
Default : Yes
Forced : No
DURATION : 01:25:28.720000000
NUMBER_OF_FRAMES : 128218
NUMBER_OF_BYTES : 3021480000
_STATISTICS_WRITING_APP : mkvmerge v7.2.0 ('On Every Street') 64bit built on Sep 13 2014 15:52:10
_STATISTICS_WRITING_DATE_UTC : 2015-04-05 06:26:11
_STATISTICS_TAGS : BPS DURATION NUMBER_OF_FRAMES NUMBER_OF_BYTES

Audio #1
ID : 2
Format : AC-3
Format/Info : Audio Coding 3
Mode extension : CM (complete main)
Format settings, Endianness : Big
Codec ID : A_AC3
Duration : 1h 25mn
Bit rate mode : Constant
Bit rate : 384 Kbps
Channel(s) : 6 channels
Channel positions : Front: L C R, Side: L R, LFE
Sampling rate : 48.0 KHz
Bit depth : 16 bits
Compression mode : Lossy
Stream size : 235 MiB (7%)
Language : Russian
Default : Yes
Forced : No

Audio #2
ID : 3
Format : DTS
Format/Info : Digital Theater Systems
Mode : 16
Format settings, Endianness : Big
Codec ID : A_DTS
Duration : 1h 25mn
Bit rate mode : Constant
Bit rate : 768 Kbps
Channel(s) : 6 channels
Channel positions : Front: L C R, Side: L R, LFE
Sampling rate : 48.0 KHz
Bit depth : 24 bits
Compression mode : Lossy
Stream size : 470 MiB (13%)
Language : English
Default : No
Forced : No


Трекер:  [ 05-Апр-2015 15:00 ]

  

Скачать .torrent

Размер .torrent файла 18 KB


Размер: 3.5 GB
Хэш (hash) релиза: 143d395817d59bcd6ce98e2500b8b5fb4c9fcf6a
Подписка на обновления:

Торренты, похожие на Охотник The Hunter скачать торрент

Форум Название Автор Размер S L Добавлен
Зарубежные фильмы 2016-2018 (Новинки зарубежного кино) ·· Охотник / The Hunter (Дэниэл Неттхейм / Daniel Nettheim) [2011, Австралия, драма, HDRip] iTunes Galfimbul 14684262401.37 GB 0 0 1428216974

09:56

5-Апр-15

Зарубежные фильмы до 2016 ·· Охотник / The Hunter (Дэниэл Неттхейм / Daniel Nettheim) [2011, Австралия, драма, BDRip] MVO Galfimbul 15827742721.47 GB 0 0 1422636491

19:48

30-Янв-15

Зарубежные фильмы до 2016 ·· Охотник / The Hunter (Дэниэл Неттхейм / Daniel Nettheim) [2011, Австралия, драма, приключения, HDRip] MVO (AB Video) + Original Eng Galfimbul 23126138882.15 GB 0 0 1391098704

19:18

30-Янв-14

Зарубежные фильмы до 2016 ·· Охотники / The Hunters (Дик Пауэл / Dick Powell) [1958, США, военный, DVDRip] AVO (Живов) Galfimbul 778874880743 MB 0 0 1364797775

09:29

1-Апр-13

Зарубежные фильмы до 2016 ·· Охотники / The Hunters (Дик Пауэл / Dick Powell) [1958, США, военный, DVDRip] AVO (Живов) Galfimbul 15625748481.46 GB 0 0 1364796916

09:15

1-Апр-13

Зарубежные фильмы до 2016 ·· Охотник / The Hunter (Базз Кулик / Buzz Kulik) [1980 г., США, боевик, триллер, биография, HDTVRip] DVO + 3 x AVO + Original (eng) Galfimbul 19672640001.83 GB 0 0 1363899193

23:53

21-Мар-13

Зарубежные фильмы до 2016 ·· Охотники / The Hunters (Крис Брайант / Chris Briant) [2011, Франция, Бельгия, Люксембург, Ужасы, BDRemux 1080i] DVO + Original (Eng) + Sub (Eng) Galfimbul 1686324074715.71 GB 0 0 1362390459

12:47

4-Мар-13

Зарубежные фильмы до 2016 ·· Охотник / The Hunter (Дэниел Неттхейм / Daniel Nettheim) [2011, Австралия, драма, триллер, HDRip-AVC] MVO(R5) + Original (eng) + SUB (rus, eng) Galfimbul 23287974112.17 GB 0 0 1338363540

10:39

30-Май-12

Зарубежные фильмы до 2016 ·· Охотник / The Hunter (Дэниел Неттхейм / Daniel Nettheim) [2011, Австралия, драма, BDRip 1080p] MVO + AVO (С.Визгунов) + VO [den904] + 2xSub Rus + Original Eng L 1159131950610.8 GB 0 0 1337845140

10:39

24-Май-12

Зарубежные фильмы до 2016 ·· Охотник / The Hunter (Дэниел Неттхейм / Daniel Nettheim) [2011, Австралия, Драма, приключения, HDRip] VO |С. Визгунов| L 22043299842.05 GB 0 0 1332217260

07:21

20-Мар-12

Зарубежные фильмы до 2016 ·· Охотник / The Hunter (Дэниел Неттхейм / Daniel Nettheim) [2011, Австралия, драма, HDRip] AVO |Визгунов| L 775495680740 MB 0 0 1332216600

07:10

20-Мар-12

Зарубежные фильмы до 2016 ·· Охотник / The Hunter (Дэниел Неттхейм) [2011, Драма, HDRip] L 22043279362.05 GB 0 0 1327909883

10:51

30-Янв-12

Зарубежные фильмы до 2016 ·· Охотник / The Hunter (Дэниел Неттхейм) [2011, Драма, HDRip] L 735258624701 MB 0 0 1327909877

10:51

30-Янв-12

Зарубежные фильмы до 2016 ·· Охотник / The Hunter (Дэниел Неттхейм) [2011, Драма, HDRip] L 15012188161.4 GB 0 0 1327909824

10:50

30-Янв-12

Зарубежные фильмы до 2016 ·· Охотники / The Hunters (Этьен Хуэт / Eten Huet) [2011, Франция, Бельгия, Люксембург, ужасы, DVDRip-AVC] DVO + Original Eng Galfimbul 23109897762.15 GB 0 0 1327053766

13:02

20-Янв-12

Зарубежные фильмы до 2016 ·· Охотники / The Hunters (Этьен Хуэт / Eten Huet) [2011, Франция, Бельгия, Люксембург, Ужасы, DVDRip] DVO Galfimbul 759103488724 MB 0 0 1326903465

19:17

18-Янв-12

Зарубежные фильмы до 2016 ·· Охотники / The Hunters (Этьен Хуэт) [2011, Ужасы, DVDRip] L 15777054721.47 GB 0 0 1326827762

22:16

17-Янв-12

Зарубежные фильмы до 2016 ·· Охотник / The Hunter (Рафи Питтс) [2010 г., драма, триллер, криминал, DVDRip] Fiery storm 15730319361.47 GB 0 0 1291662406

22:06

6-Дек-10

Зарубежные фильмы до 2016 ·· Ночь охотника / The Night of the Hunter (Чарльз Лотон / Charles Laughton) [1955 г., Драма, триллер, нуар, HDRip] MVO Galfimbul 780627968744 MB 0 0 1364800059

10:07

1-Апр-13

Еще никто не оставлял запись к записи скачать торрент Охотник The Hunter . Будь первым!

!Обратная связь