Скачать через торрент Мотыльки Фильм бесплатно в хорошем качестве torrent

Скачивайте на UnionPeer.org фильмы через торрент без регистрации. Новинки кино в хорошем качестве через торрент. На UnionPeer.org можно скачать через торрент фильмы 2014 и 2015 годов. Самые новые фильмы.

Скачать торрент Мотыльки бесплатно через .torrent фильм мультфильм сериал

Статистика раздачи
Размер:  1.08 GB   |    Зарегистрирован:  7 лет 7 месяцев   |    .torrent скачан:  68 раз   |   
Раздают:  1  
 

Скачать Мотыльки (Виталий Воробьёв) [1 Сезон][4 из 4][2013 г., драма, WEB-DLRip] через torrent

 
 
Автор Сообщение

Galfimbul

avatar Galfimbul


Мотыльки
«Борьба любви и смерти»
Оригинальное Название: Мотыльки
Год Выпуска: 2013
Cтрана: Украина
Жанр: драма
Сезон: 1
Кол-во Серий: 4 из 4
Продолжительность серии: ~ 50 мин.
Перевод: Не требуется [Оригинал]
Режиссер: Виталий Воробьев

В ролях: Юрий Борисов, Мария Поезжаева, Евгения Лоза, Андрей Казаков, Юрий Назаров, Юлия Рутберг, Артем Ткаченко, Максим Заусалин, Тимур Боканча, Олег Примогенов
Описание:
История любви выпускницы старших классов Али и солдата срочной службы Паши разворачивается на фоне одной из самых масштабных техногенных катастроф XX века — Чернобыльской аварии. Им суждено было встретиться в конце апреля 1986 года в городе Припять. Словно мотыльки, стремящиеся к огню, они летели навстречу своим чувствам, не замечая ничего вокруг.


Источник: WEB-DL 720p
Качество: WEB-DLRip
Формат: MP4
Видео кодек: H.264
Аудио кодек: AAC
Видео: MPEG-4 AVC Video (H.264) / 480х272 / 640 kbps / 25.000 fps / 16:9 / Main Profile 3.0
Аудио: AAC, 2 channels, 48 kHz, 128 kbps
1. 1 Серия
2. 2 Серия
3. 3 Серия
4. 4 Серия

General
Complete name                       : D:\PSP\Раздачи\Сериалы\Мотыльки (мини-сериал)\Motylki.2013.s01e01.WEB-DLRip.mp4
Format                              : MPEG-4
Format profile                      : Base Media
Codec ID                            : isom
File size                           : 274 MiB
Duration                            : 49mn 40s
Overall bit rate mode               : Variable
Overall bit rate                    : 772 Kbps
Encoded date                        : UTC 2013-11-15 13:08:46
Tagged date                         : UTC 2013-11-15 13:08:46

Video
ID                                  : 1
Format                              : AVC
Format/Info                         : Advanced Video Codec
Format profile                      : Main@L3.0
Format settings, CABAC              : Yes
Format settings, ReFrames           : 3 frames
Codec ID                            : avc1
Codec ID/Info                       : Advanced Video Coding
Duration                            : 49mn 40s
Bit rate                            : 640 Kbps
Maximum bit rate                    : 3 958 Kbps
Width                               : 480 pixels
Height                              : 272 pixels
Display aspect ratio                : 16:9
Frame rate mode                     : Constant
Frame rate                          : 25.000 fps
Color space                         : YUV
Chroma subsampling                  : 4:2:0
Bit depth                           : 8 bits
Scan type                           : Progressive
Bits/(Pixel*Frame)                  : 0.196
Stream size                         : 227 MiB (83%)
Writing library                     : x264 core 130 r2273 b3065e6
Encoding settings                   : cabac=1 / ref=3 / deblock=1:-2:-1 / analyse=0x1:0x131 / me=umh / subme=10 / psy=1 / psy_rd=1.00:0.20 / mixed_ref=1 / me_range=16 / chroma_me=1 / trellis=2 / 8x8dct=0 / cqm=0 / deadzone=21,11 / fast_pskip=0 / chroma_qp_offset=-3 / threads=12 / lookahead_threads=1 / sliced_threads=0 / nr=0 / decimate=0 / interlaced=0 / bluray_compat=0 / constrained_intra=0 / bframes=3 / b_pyramid=0 / b_adapt=2 / b_bias=0 / direct=3 / weightb=1 / open_gop=0 / weightp=2 / keyint=250 / keyint_min=25 / scenecut=40 / intra_refresh=0 / rc_lookahead=60 / rc=2pass / mbtree=1 / bitrate=640 / ratetol=1.0 / qcomp=0.60 / qpmin=0 / qpmax=69 / qpstep=4 / cplxblur=20.0 / qblur=0.5 / ip_ratio=1.40 / aq=1:1.00
Encoded date                        : UTC 2013-11-15 13:08:46
Tagged date                         : UTC 2013-11-15 13:09:04

Audio
ID                                  : 2
Format                              : AAC
Format/Info                         : Advanced Audio Codec
Format profile                      : LC
Codec ID                            : 40
Duration                            : 49mn 40s
Bit rate mode                       : Variable
Bit rate                            : 128 Kbps
Maximum bit rate                    : 163 Kbps
Channel(s)                          : 2 channels
Channel positions                   : Front: L R
Sampling rate                       : 48.0 KHz
Compression mode                    : Lossy
Delay relative to video             : 40ms
Stream size                         : 45.5 MiB (17%)
Encoded date                        : UTC 2013-11-15 13:08:58
Tagged date                         : UTC 2013-11-15 13:09:04



Если вы скачали данный релиз и хотите выложить его на другом ресурсе -
пожалуйста, указывайте первоисточник
- R.G. Video Games World

Внимание! AdBlock блокирует показ скриншотов, все вопросы к разработчикам )))
Трекер:  [ 11-Апр-2015 18:00 ]

  

Скачать .torrent

Размер .torrent файла 11 KB


Размер: 1.08 GB
Хэш (hash) релиза: 6422096cf1e752627106bf126f3c8d268307b8ab
Подписка на обновления:

Торренты, похожие на Мотыльки скачать торрент

Форум Название Автор Размер S L Добавлен
Российские сериалы ·· Танец мотылька: Серии: 1-4 из 4 (Бата Недич) [2017, Мелодрама, WEBRip] Galfimbul 25140039682.34 GB 0 0 1497851462

08:51

19-Июн-17

Зарубежные фильмы до 2016 ·· Мотыльки (Виталий Воробьёв) [2013, Украина, драма, BDRip 720p] Galfimbul 61826868735.76 GB 0 0 1458755906

20:58

23-Мар-16

Российские фильмы до 2016 ·· Танго мотылька (Игорь Мужжухин) [2015, Мелодрама, SATRip] Galfimbul 13387839201.25 GB 0 0 1427809156

16:39

31-Мар-15

Российские фильмы до 2016 ·· Танго мотылька (Игорь Мужжухин) [2015, Мелодрама, HDTVRip 720p] Galfimbul 26091349902.43 GB 0 0 1427687110

06:45

30-Мар-15

Российские фильмы до 2016 ·· Танго мотылька (Игорь Мужжухин) [2015, Мелодрама, HDTVRip] Galfimbul 737970176704 MB 0 0 1427671365

02:22

30-Мар-15

Российские фильмы до 2016 ·· Танго мотылька (Игорь Мужжухин) [2015, Мелодрама, HDTVRip-AVC] Galfimbul 13551825211.26 GB 0 0 1427667488

01:18

30-Мар-15

Российские фильмы до 2016 ·· Танго мотылька (Игорь Мужжухин) [2015, Мелодрама, HDTVRip AVC] Galfimbul 13870062181.29 GB 0 0 1427665952

00:52

30-Мар-15

Российские фильмы до 2016 ·· Танго мотылька (Игорь Мужжухин) [2015, Мелодрама, HDTV 1080i] Galfimbul 44557498364.15 GB 0 0 1427651871

20:57

29-Мар-15

Российские фильмы до 2016 ·· Танго мотылька (Игорь Мужжухин) [2015, Мелодрама, HDTVRip] Galfimbul 14714409861.37 GB 0 0 1427651867

20:57

29-Мар-15

Российские сериалы ·· Мотыльки / Серии: 1-4 из 4 (Виталий Воробьёв) [2013, драма, WEB-DL 720p] Galfimbul 61322487505.71 GB 0 0 1380358282

11:51

28-Сен-13

Российские сериалы ·· Мотыльки / Серии: 1-4 из 4 (Виталий Воробьёв) [2013, драма, WEB-DL 1080p] Galfimbul 89267799298.31 GB 0 0 1380358278

11:51

28-Сен-13

Зарубежные фильмы до 2016 ·· Дневники мотылька / The Moth Diaries (Мэри Хэррон) [2011, ужасы, драма, BDRip] Galfimbul 781586432745 MB 0 0 1372430048

17:34

28-Июн-13

Российские сериалы ·· Мотыльки / Серии: 1-4 из 4 (Виталий Воробьёв) [2013, драма, SATRip] L 23068364802.15 GB 0 0 1367126407

08:20

28-Апр-13

Российские сериалы ·· Мотыльки / Серии: 1-4 из 4 (Виталий Воробьёв) [2013, драма, DVB] L 36419461123.39 GB 0 0 1367126398

08:19

28-Апр-13

Зарубежные фильмы до 2016 ·· Взмах крыльев мотылька / Le battement d'ailes du papillon (Лорен Фирод / Laurent Firode) [2000 г, драма, мелодрама, комедия, DVDRip] MVO + Original Galfimbul 15923998721.48 GB 0 0 1365326275

12:17

7-Апр-13

Зарубежные фильмы до 2016 ·· Взмах крыльев мотылька / Случайностей не бывает / Le battement d'ailes du papillon (Лорен Фирод / Laurent Firode) [2000 г, драма, мелодрама, комедия, DVDRip] MVO Galfimbul 784982016749 MB 0 0 1365325706

12:08

7-Апр-13

Российские фильмы до 2016 ·· Игры мотыльков (Андрей Прошкин) [2004 г., Драма, DVDRip] Ziki 14672404481.37 GB 0 0 1290722124

00:55

26-Ноя-10

Зарубежные фильмы до 2016 ·· Взмах крыльев мотылька / Случайностей не бывает / Амели 2 / Battement d'ailes du papillon, Le / Happenstance / Amelie 2 / The Beating of a Butterfly's (Лоран Фироде / Laurent Firode) [2000 г., Комедия, мелодрама, DVDRip] Dxe 770746368735 MB 0 0 1290622852

21:20

24-Ноя-10

Еще никто не оставлял запись к записи скачать торрент Мотыльки . Будь первым!

!Обратная связь