Скачать через торрент Женский дом GirlHouse Фильм бесплатно в хорошем качестве torrent

Скачивайте на UnionPeer.org фильмы через торрент без регистрации. Новинки кино в хорошем качестве через торрент. На UnionPeer.org можно скачать через торрент фильмы 2014 и 2015 годов. Самые новые фильмы.

Скачать торрент Женский дом GirlHouse бесплатно через .torrent фильм мультфильм сериал

Статистика раздачи
Размер:  4.91 GB   |    Зарегистрирован:  8 лет 8 месяцев   |    .torrent скачан:  83 раза   |   
Раздают:  1  
 

Скачать Женский дом / GirlHouse (Тревор Мэтьюз / Trevor Matthews) [2014, Канада, ужасы, триллер, BDRip 720p] MVO (Sunny-Films) + Sub Eng + Original Eng через torrent

 
 
Автор Сообщение

Galfimbul

avatar Galfimbul


Женский дом / GirlHouse

Страна: Канада
Студия: Brookstreet Pictures
Жанр: ужасы, триллер
Год выпуска: 2014
Продолжительность: 01:41:07

Перевод: Любительский (многоголосый закадровый) Sunny-Films
Cубтитры: английские
Оригинальная аудиодорожка: английский

Режиссер: Тревор Мэтьюз / Trevor Matthews

В ролях: Эли Кобрин, Адам ДиМарко, Слэйн, Элисон Бэт, Элисия Ротару, Элис Хантер, Чести Бальестерос, Николь Фокс, Зулейка Силвер, Уэсли МакИннес

Описание: Молодая студентка, отчаянно нуждающаяся в деньгах на обучение, начинает работу в доме, откуда ведутся трансляции порно. Но стоит обиженному рукоблуду фанату узнать его местоположение, как ей приходится бороться за свою жизнь.

II Сэмпл II IMDB II

Доп. информация:
За русскую дорогу спасибо Рюмка-Водки

Тип релиза: BDRip 720p
Контейнер: MKV

Видео: AVC / 1280x536 / 2.40:1 / 23.976fps / Bit rate 5300Kbps / [email protected]
Аудио 1: AC3 / 48.0KHz / 2ch. / 192kbps / rus / Sunny-Films
Аудио 2: DTS / 48.0KHz / 6ch. / 768kbps / 24bit / eng
Формат субтитров: softsub (SRT)
Общее
Уникальный идентификатор : 239401414512806806329362753043565217622 (0xB41B0909052CD2D29D78353C10298756)
Полное имя : H:\!_Torrent\Girlhouse.2014.BDRip.720p.Sub.Eng_by_vedigo.mkv
Формат : Matroska
Версия формата : Version 4 / Version 2
Размер файла : 4,91 Гбайт
Продолжительность : 1 ч. 41 м.
Общий поток : 6946 Кбит/сек
Дата кодирования : UTC 2015-06-19 21:39:40
Программа кодирования : mkvmerge v7.9.0 ('Birds') 64bit
Библиотека кодирования : libebml v1.3.1 + libmatroska v1.4.2
DURATION : 01:37:48.355000000
NUMBER_OF_FRAMES : 748
NUMBER_OF_BYTES : 26357
_STATISTICS_WRITING_APP : mkvmerge v7.9.0 ('Birds') 64bit
_STATISTICS_WRITING_DATE_UTC : 2015-06-19 21:39:40
_STATISTICS_TAGS : BPS DURATION NUMBER_OF_FRAMES NUMBER_OF_BYTES

Видео
Идентификатор : 1
Формат : AVC
Формат/Информация : Advanced Video Codec
Профиль формата : [email protected]
Параметр CABAC формата : Да
Параметр ReFrames формата : 12 кадров
Идентификатор кодека : V_MPEG4/ISO/AVC
Продолжительность : 1 ч. 41 м.
Битрейт : 6000 Кбит/сек
Ширина : 1280 пикселей
Высота : 536 пикселей
Соотношение сторон : 2,40:1
Режим частоты кадров : Постоянный
Частота кадров : 23,976 кадра/сек
Цветовое пространство : YUV
Субдискретизация насыщенности : 4:2:0
Битовая глубина : 8 бит
Тип развёртки : Прогрессивная
Бит/(Пиксели*Кадры) : 0.365
Размер потока : 4,13 Гбайт (84%)
Заголовок : Girlhouse.2014.BDRip.720p.Sub.Eng_by_vedigo
Библиотека кодирования : x264 core 146 r2538 121396c
Настройки программы : cabac=1 / ref=12 / deblock=1:-3:-3 / analyse=0x3:0x133 / me=umh / subme=11 / psy=1 / psy_rd=1.00:0.10 / mixed_ref=1 / me_range=48 / chroma_me=1 / trellis=2 / 8x8dct=1 / cqm=0 / deadzone=21,11 / fast_pskip=0 / chroma_qp_offset=-3 / threads=12 / lookahead_threads=3 / sliced_threads=0 / nr=0 / decimate=1 / interlaced=0 / bluray_compat=0 / constrained_intra=0 / bframes=10 / b_pyramid=2 / b_adapt=2 / b_bias=0 / direct=3 / weightb=1 / open_gop=0 / weightp=2 / keyint=250 / keyint_min=23 / scenecut=40 / intra_refresh=0 / rc_lookahead=40 / rc=2pass / mbtree=0 / bitrate=6000 / ratetol=1.0 / qcomp=0.60 / qpmin=0 / qpmax=69 / qpstep=4 / cplxblur=20.0 / qblur=0.5 / vbv_maxrate=50000 / vbv_bufsize=62500 / nal_hrd=none / filler=0 / ip_ratio=1.40 / pb_ratio=1.30 / aq=1:1.00
Default : Да
Forced : Нет
DURATION : 01:41:07.895000000
NUMBER_OF_FRAMES : 145484
NUMBER_OF_BYTES : 4537992212
_STATISTICS_WRITING_APP : mkvmerge v7.9.0 ('Birds') 64bit
_STATISTICS_WRITING_DATE_UTC : 2015-06-19 21:39:40
_STATISTICS_TAGS : BPS DURATION NUMBER_OF_FRAMES NUMBER_OF_BYTES

Аудио #1
Идентификатор : 2
Формат : AC-3
Формат/Информация : Audio Coding 3
Расширение режима : CM (complete main)
Параметр Endianness формата : Big
Идентификатор кодека : A_AC3
Продолжительность : 1 ч. 41 м.
Вид битрейта : Постоянный
Битрейт : 192 Кбит/сек
Каналы : 2 канала
Расположение каналов : Front: L R
Частота : 48,0 КГц
Метод сжатия : С потерями
Размер потока : 139 Мбайт (3%)
Заголовок : Russian AC3 @192 kbps
Язык : Russian
Default : Да
Forced : Нет

Аудио #2
Идентификатор : 3
Формат : DTS
Формат/Информация : Digital Theater Systems
Режим : 16
Параметр Endianness формата : Big
Идентификатор кодека : A_DTS
Продолжительность : 1 ч. 41 м.
Вид битрейта : Постоянный
Битрейт : 768 Кбит/сек
Каналы : 6 каналов
Расположение каналов : Front: L C R, Side: L R, LFE
Частота : 48,0 КГц
Битовая глубина : 24 бит
Метод сжатия : С потерями
Размер потока : 556 Мбайт (11%)
Заголовок : English DTS Core 5.1 @1509 kbps
Язык : English
Default : Нет
Forced : Нет

Текст
Идентификатор : 4
Формат : UTF-8
Идентификатор кодека : S_TEXT/UTF8
Идентификатор кодека/Информация : UTF-8 Plain Text
Заголовок : subtitle eng
Язык : English
Default : Нет
Forced : Нет

Меню
00:00:00.000 : en:Chapter 01
00:09:06.671 : en:Chapter 02
00:17:58.911 : en:Chapter 03
00:27:23.892 : en:Chapter 04
00:36:31.898 : en:Chapter 05
00:45:34.189 : en:Chapter 06
00:54:42.988 : en:Chapter 07
01:03:50.952 : en:Chapter 08
01:12:59.124 : en:Chapter 09
01:22:07.881 : en:Chapter 10
01:31:14.427 : en:Chapter 11
01:37:43.274 : en:Chapter 12
01:41:06.935 : en:Chapter 13
x264 [info]: using SAR=1/1
x264 [info]: using cpu capabilities: MMX2 SSE2Fast SSSE3 SSE4.2 AVX
x264 [info]: profile High, level 4.1

x264 [info]: frame I:1204 Avg QP:10.92 size:124642
x264 [info]: frame P:33794 Avg QP:13.22 size: 55420
x264 [info]: frame B:110486 Avg QP:14.83 size: 22763
x264 [info]: consecutive B-frames: 3.2% 3.5% 12.1% 18.2% 16.4% 34.8% 5.2% 1.5% 1.7% 1.2% 2.1%
x264 [info]: mb I I16..4: 26.1% 42.3% 31.6%
x264 [info]: mb P I16..4: 5.2% 19.9% 3.9% P16..4: 20.8% 25.7% 12.5% 2.9% 0.3% skip: 8.8%
x264 [info]: mb B I16..4: 0.9% 4.1% 0.5% B16..8: 29.3% 23.9% 6.4% direct: 8.4% skip:26.6% L0:45.2% L1:39.6% BI:15.1%
x264 [info]: 8x8 transform intra:69.1% inter:44.4%
x264 [info]: direct mvs spatial:97.3% temporal:2.7%
x264 [info]: coded y,uvDC,uvAC intra: 82.3% 89.2% 85.8% inter: 35.3% 36.2% 20.9%
x264 [info]: i16 v,h,dc,p: 39% 7% 21% 33%
x264 [info]: i8 v,h,dc,ddl,ddr,vr,hd,vl,hu: 13% 9% 21% 8% 9% 10% 9% 10% 11%
x264 [info]: i4 v,h,dc,ddl,ddr,vr,hd,vl,hu: 17% 10% 20% 7% 10% 9% 9% 8% 10%
x264 [info]: i8c dc,h,v,p: 56% 17% 14% 13%
x264 [info]: Weighted P-Frames: Y:2.5% UV:1.1%
x264 [info]: ref P L0: 44.0% 7.3% 18.2% 7.1% 6.1% 4.1% 3.9% 2.1% 2.1% 1.7% 1.7% 1.5% 0.3% 0.0%
x264 [info]: ref B L0: 69.2% 13.2% 6.0% 3.3% 2.3% 1.9% 1.5% 1.0% 1.0% 0.5% 0.2%
x264 [info]: ref B L1: 92.9% 7.1%
x264 [info]: kb/s:5982.95


Внимание! AdBlock блокирует показ скриншотов, все вопросы к разработчикам )))
Трекер:  [ 20-Июн-2015 01:00 ]

  

Скачать .torrent

Размер .torrent файла 12 KB


Размер: 4.91 GB
Хэш (hash) релиза: f862f7e104ccba28ee7be64b44c28e4264e60b73
Подписка на обновления:

Торренты, похожие на Женский дом GirlHouse скачать торрент

Форум Название Автор Размер S L Добавлен
Зарубежные фильмы 2016-2019 (Новинки зарубежного кино) ·· Женский дом / GirlHouse (Тревор Мэтьюз) [2014, ужасы, триллер, BDRip 1080p] Galfimbul 91948429418.56 GB 0 0 1493989960

16:12

5-Май-17

Зарубежные фильмы до 2016 ·· Женский дом / GirlHouse (Тревор Мэтьюз / Trevor Matthews) [2014, Канада, ужасы, триллер, BDRip-AVC] MVO (Sunny-Films) Galfimbul 778279632742 MB 0 0 1435651046

10:57

30-Июн-15

Зарубежные фильмы до 2016 ·· Женский дом / GirlHouse (Тревор Мэтьюз / Trevor Matthews) [2014, Канада, Ужасы, Триллер, WEB-DLRip] MVO (Sunny-Films) Galfimbul 14762496001.37 GB 0 0 1425586482

23:14

5-Мар-15

Зарубежные фильмы до 2016 ·· Женский дом / GirlHouse (Тревор Мэтьюз) [2014, ужасы, триллер, HDRip] Galfimbul 782256128746 MB 0 0 1425534897

08:54

5-Мар-15

Зарубежные фильмы до 2016 ·· Женский дом / GirlHouse (Тревор Мэтьюз) [2014, ужасы, триллер, WEB-DL 720p] Galfimbul 34512157843.21 GB 0 0 1425505972

00:52

5-Мар-15

Зарубежные фильмы до 2016 ·· Женский дом / GirlHouse (Тревор Мэтьюз) [2014, ужасы, триллер, WEB-DLRip] Galfimbul 15651061761.46 GB 0 0 1425503089

00:04

5-Мар-15

Еще никто не оставлял запись к записи скачать торрент Женский дом GirlHouse . Будь первым!

!Обратная связь