Скачать порно через торрент Compilation of Moms UnionPeer.org бесплатно онлайн HD качество

Скачать новое порно 2015, 2014 новинки через торрент UnionPeer.org

Порно торрент бесплатно ЮнионПир.орг

Статистика раздачи
Размер:  751 MB   |    Зарегистрирован:  8 лет 5 месяцев   |    .torrent скачан:  720 раз   |   
Раздают:  1  
 

Скачать Compilation of Moms [2015 г., solo, posing, masturbation, lingerie, gaping, mature, big tits, HDRip] через torrent

 
 
Автор Сообщение

Galfimbul

avatar Galfimbul


Compilation of Moms________________________
__________________
Год производства: 2015 г.
Страна: other
Жанр: solo, posing, masturbation, lingerie, gaping, mature, big tits
Продолжительность: 00:21:29

Описание: Компиляция сцен демонстрации мастурбирования.

Доп. информация: На телеке идёт.

Качество видео: HDRip
Формат видео: MPEG-4
Видео: AVC, 1280x720, 25,000 кадров/сек, 4751 Кбит/сек,
Аудио: AAC, 44,1 КГц, 2 канала, Front: L R, 128 Кбит/сек
Общее
Полное имя : compilation_moms.mp4
Формат : MPEG-4
Профиль формата : Base Media / Version 2
Идентификатор кодека : mp42
Размер файла : 751 Мбайт
Продолжительность : 21 м.
Общий поток : 4884 Кбит/сек
Содиректор : codirector
Студия-производитель : studio
Тип содержимого : Unknown Type
Дата кодирования : UTC 2015-09-09 11:18:09
Дата пометки : UTC 2015-09-09 11:18:09

Видео
Идентификатор : 1
Формат : AVC
Формат/Информация : Advanced Video Codec
Профиль формата : [email protected]
Параметр CABAC формата : Да
Параметр ReFrames формата : 2 кадра
Параметр GOP формата : M=3, N=30
Режим смешивания : Container [email protected]
Идентификатор кодека : avc1
Идентификатор кодека/Информация : Advanced Video Coding
Продолжительность : 21 м.
Битрейт : 4751 Кбит/сек
Ширина : 1280 пикселей
Высота : 720 пикселей
Соотношение сторон : 16:9
Режим частоты кадров : Постоянный
Частота кадров : 25,000 кадров/сек
Цветовое пространство : YUV
Субдискретизация насыщенности : 4:2:0
Битовая глубина : 8 бит
Тип развёртки : Прогрессивная
Бит/(Пиксели*Кадры) : 0.206
Размер потока : 730 Мбайт (97%)
Язык : English

Аудио
Идентификатор : 2
Формат : AAC
Формат/Информация : Advanced Audio Codec
Профиль формата : LC
Идентификатор кодека : 40
Продолжительность : 21 м.
Продолжительность оригинала : 21 м.
Вид битрейта : Постоянный
Битрейт : 128 Кбит/сек
Каналы : 2 канала
Расположение каналов : Front: L R
Частота : 44,1 КГц
Метод сжатия : С потерями
Размер потока : 19,6 Мбайт (3%)
Размер потока оригинала : 19,6 Мбайт (3%)
Заголовок : Stereo
Язык : English
try failed try failed try failed try failed try failed try failed try failed try failed try failed try failed
no match no match no match no match no match no match no match no match no match no match
no match


Внимание! AdBlock блокирует показ скриншотов, все вопросы к разработчикам )))
Трекер:  [ 11-Сен-2015 11:00 ]

  

Скачать .torrent

Размер .torrent файла 15 KB


Размер: 751 MB
Хэш (hash) релиза: 486e93c557c04d16b3ed5aad0ab966a255f61648

Торренты, похожие на Compilation of Moms скачать торрент

Форум Название Автор Размер S L Добавлен
Фильмы без сюжета 1991-2010 / All Sex & Amateur 1991-2010 ·· Best Of I Wanna Cum Inside Your Mom / Лучшee Из Я Хочу Кончить В Твою Мамку (White Ghetto) [2014 г., Compilation,All sex,CreamPie, DVDRip](Ginger Lynn, Mellanie Monroe, Veronica Rayne, Vicky Vette) Galfimbul 21156470861.97 GB 0 0 1406048539

20:02

22-Июл-14

Еще никто не оставлял запись к записи скачать торрент Compilation of Moms . Будь первым!

!Обратная связь