Скачать через торрент Макс Стил. Гнев Макино Max Steel. The Wrath of Makino Фильм бесплатно в хорошем качестве torrent

Скачивайте на UnionPeer.org фильмы через торрент без регистрации. Новинки кино в хорошем качестве через торрент. На UnionPeer.org можно скачать через торрент фильмы 2014 и 2015 годов. Самые новые фильмы.

Скачать торрент Макс Стил. Гнев Макино Max Steel. The Wrath of Makino бесплатно через .torrent фильм мультфильм сериал

Статистика раздачи
Размер:  961 MB   |    Зарегистрирован:  8 лет 4 месяца   |    .torrent скачан:  25 раз   |   
Раздают:  1  
 

Скачать Макс Стил. Гнев Макино / Max Steel. The Wrath of Makino (Джереми Браун / Jeremy Brown) [2015, приключения, семейный, детский, DVB] Dub через torrent

 
 
Автор Сообщение

Galfimbul

avatar Galfimbul


Макс Стил. Гнев Макино / Max Steel. The Wrath of Makino

Год выпуска: 2015
Страна: США
Жанр: приключения, семейный, детский
Продолжительность: 00:41:23
Перевод: Профессиональный (дублированный)
Русские субтитры: нет

Режиссёр: Джереми Браун / Jeremy Brown

Описание: Храбрый воин Макс Стилл сражается с главным злодеем Вселенной. Кто победит? Макино — самый опасный пришелец во всей Вселенной, ответственный за разрушение множества планет. Он создал инопланетную расу ультралинков и мечтает поглотить нашу Землю. Этот смертоносный злодей — давний противник Макса Стилла. Предыдущие столкновения отважного Макса с Макино, к счастью, заканчивались поражением пришельца. Но злодей снова появился на Земле с коварным планом. Неожиданно вернувшись, Макино заявил, что место вожака ультралинков свободно. Чтобы стать главарем инопланетной расы, претенденты должны проникнуть в разум Макино. Макс выигрывает соревнование, но ситуация становится опасной, когда он сам попадает под контроль сильного соперника...

Релиз группы:

Трансляция спутникового канала:


Семпл: https://yadi.sk/i/2W09NqYTjeoRr

Качество видео: DVB
Формат видео: MPEG-PS

Видео: MPEG2 Video, 720x576 (4:3), 25 fps, 3000 kbps
Аудио: MPEG Audiо, 2 сh, 48 kHz, 192 kbps
General
Format : MPEG-PS
File size : 961 MiB
Duration : 41mn 23s
Overall bit rate mode : Variable
Overall bit rate : 3 244 Kbps

Video #224
ID : 224 (0xE0)
Format : MPEG Video
Format version : Version 2
Format profile : Main@Main
Format settings, BVOP : Yes
Format settings, Matrix : Custom
Format settings, GOP : Variable
Duration : 41mn 23s
Bit rate mode : Variable
Bit rate : 2 987 Kbps
Maximum bit rate : 5 000 Kbps
Width : 720 pixels
Height : 576 pixels
Display aspect ratio : 4:3
Frame rate : 25.000 fps
Standard : PAL
Color space : YUV
Chroma subsampling : 4:2:0
Bit depth : 8 bits
Scan type : Interlaced
Scan order : Top Field First
Compression mode : Lossy
Bits/(Pixel*Frame) : 0.288
Time code of first frame : 00:00:00:00
Time code source : Group of pictures header
Stream size : 885 MiB (92%)

Audio #192
ID : 192 (0xC0)
Format : MPEG Audio
Format version : Version 1
Format profile : Layer 2
Duration : 41mn 23s
Bit rate mode : Constant
Bit rate : 192 Kbps
Channel(s) : 2 channels
Sampling rate : 48.0 KHz
Compression mode : Lossy
Delay relative to video : 4ms
Stream size : 56.9 MiB (6%)


Внимание! AdBlock блокирует показ скриншотов, все вопросы к разработчикам )))
Трекер:  [ 14-Окт-2015 19:30 ]

  

Скачать .torrent

Размер .torrent файла 19 KB


Размер: 961 MB
Хэш (hash) релиза: be81048196353059515f3f5647d3f1bf3705e800
Подписка на обновления:

Торренты, похожие на Макс Стил. Гнев Макино Max Steel. The Wrath of Makino скачать торрент

Форум Название Автор Размер S L Добавлен
Мультфильмы до 2016 ·· Макс Стил. Гнев Макино / Max Steel. The Wrath of Makino (Жерени Бровн / Jeremy Brown) [2015, Мультфильм, приключения, семейный, детский, SATRip] Dub Galfimbul 714620928682 MB 0 0 1444845235

20:53

14-Окт-15

Еще никто не оставлял запись к записи скачать торрент Макс Стил. Гнев Макино Max Steel. The Wrath of Makino . Будь первым!

!Обратная связь