Скачать порно через торрент Webcam solo hot girl creamy sqirt UnionPeer.org бесплатно онлайн HD качество

Скачать новое порно 2015, 2014 новинки через торрент UnionPeer.org

Порно торрент бесплатно ЮнионПир.орг

Статистика раздачи
Размер:  481 MB   |    Зарегистрирован:  8 лет 3 месяца   |    .torrent скачан:  397 раз   |   
Раздают:  1  
 

Скачать Webcam solo hot girl creamy sqirt [2015 г., solo, posing, masturbation, WebCam] через torrent

 
 
Автор Сообщение

Galfimbul

avatar Galfimbul


Webcam solo hot girl creamy sqirt ________________
________
[i]
Год производства: 2015 г.
Страна: other
Жанр: solo, posing, masturbation
Продолжительность: 00:31:47

Качество видео: WebCam
Формат видео: MPEG
Видео: AVC, 768x576, 30,000 кадров/сек, 2018 Кбит/сек
Аудио: AAC, 44,1 КГц, 2 канала, 93,1 Кбит/сек</span>
Общее
Полное имя : Webcam solo hot girl creamy sqirt .mp4
Формат : MPEG-4
Профиль формата : Base Media / Version 2
Идентификатор кодека : mp42
Размер файла : 481 Мбайт
Продолжительность : 31 м.
Общий поток : 2115 Кбит/сек
Содиректор : codirector
Студия-производитель : studio
Тип содержимого : Unknown Type
Дата кодирования : UTC 2015-10-23 14:58:21
Дата пометки : UTC 2015-10-23 14:58:21

Видео
Идентификатор : 1
Формат : AVC
Формат/Информация : Advanced Video Codec
Профиль формата : [email protected]
Параметр CABAC формата : Да
Параметр ReFrames формата : 2 кадра
Параметр GOP формата : M=3, N=30
Идентификатор кодека : avc1
Идентификатор кодека/Информация : Advanced Video Coding
Продолжительность : 31 м.
Продолжительность оригинала : 31 м.
Битрейт : 2018 Кбит/сек
Ширина : 768 пикселей
Высота : 576 пикселей
Соотношение сторон : 4:3
Режим частоты кадров : Переменный
Частота кадров : 30,000 кадров/сек
Минимальная частота кадров : 30,000 кадров/сек
Максимальная частота кадров : 30,010 кадров/сек
Цветовое пространство : YUV
Субдискретизация насыщенности : 4:2:0
Битовая глубина : 8 бит
Тип развёртки : Прогрессивная
Бит/(Пиксели*Кадры) : 0.152
Размер потока : 459 Мбайт (95%)
Размер потока оригинала : 459 Мбайт (95%)
Язык : English
Дата кодирования : UTC 2015-10-23 14:58:21
Дата пометки : UTC 2015-10-23 14:58:21
mdhd_Duration : 1907604

Аудио
Идентификатор : 2
Формат : AAC
Формат/Информация : Advanced Audio Codec
Профиль формата : LC
Идентификатор кодека : 40
Продолжительность : 31 м.
Продолжительность оригинала : 31 м.
Вид битрейта : Постоянный
Битрейт : 93,1 Кбит/сек
Каналы : 2 канала
Расположение каналов : Front: L R
Частота : 44,1 КГц
Метод сжатия : С потерями
Размер потока : 20,7 Мбайт (4%)
Размер потока оригинала : 20,7 Мбайт (4%)
Язык : English
Дата кодирования : UTC 2015-10-23 14:58:21
Дата пометки : UTC 2015-10-23 14:58:21
mdhd_Duration : 1907619
try failed try failed try failed try failed try failed try failed try failed try failed try failed try failed try failed try failed try failed try failed


Внимание! AdBlock блокирует показ скриншотов, все вопросы к разработчикам )))
Трекер:  [ 24-Окт-2015 19:30 ]

  

Скачать .torrent

Размер .torrent файла 19 KB


Размер: 481 MB
Хэш (hash) релиза: 01682b924b465763b095030a77e793a45a6ed15d

Еще никто не оставлял запись к записи скачать торрент Webcam solo hot girl creamy sqirt . Будь первым!

!Обратная связь