Скачать через торрент Эрнест и Селестина: Приключения мышки и медведя Ernest et Célestine Фильм бесплатно в хорошем качестве torrent

Скачивайте на UnionPeer.org фильмы через торрент без регистрации. Новинки кино в хорошем качестве через торрент. На UnionPeer.org можно скачать через торрент фильмы 2014 и 2015 годов. Самые новые фильмы.

Скачать торрент Эрнест и Селестина: Приключения мышки и медведя Ernest et Célestine бесплатно через .torrent фильм мультфильм сериал

Статистика раздачи
Размер:  1.37 GB   |    Зарегистрирован:  4 года 10 месяцев   |    .torrent скачан:  30 раз   |   
Раздают:  1  
   
Sprinthost
загрузка...
 
Автор Сообщение

Galfimbul ghost

avatar Galfimbul ghost


Эрнест и Селестина: Приключения мышки и медведя / Ernest et Célestine«Кажется, это начало прекрасной дружбы»
Год выпуска: 2012
Страна: Франция, Бельгия, Люксембург
Жанр: мультфильм, драма, комедия, семейный
Продолжительность: 01:19:20
Перевод: Профессиональный (дублированный)
Русские субтитры: нет
Возраст: 0+ (для любой зрительской аудитории)
Рейтинг MPAA: PG (рекомендуется присутствие родителей)

Режиссер: Стефани Обье / Stéphane Aubier, Венсан Патар / Vincent Patar

Роли озвучивали: Ламбер Вильсон, Полин Бруннер, Форест Уитакер, Маккензи Фой, Лорен Бэколл, Энн-Мари Луп, Пол Джаматти, Патрис Меленнек, Уильям Х. Мэйси, Брижитт Виртюд и др.

Описание: Большая дружба начинается с малого… Она — маленькая мышка, он — огромный медведь. Она — ребенок, он — взрослый. Она мечтает быть художницей, хотя по правилам своего мира должна стать дантистом, он — музыкант и поэт, ведущий бездумную жизнь и никогда не имеющий куска хлеба на завтра. Они живут в разных мирах: для обитателей мышиного царства нет ничего более дикого, чем подружиться с «большим плохим медведем», да и его соседи вряд ли поймут, зачем водиться с мышкой. Но дружба и родство душ сродни настоящему волшебству. И какое этой парочке дело до условностей, разницы в размере, исторических предрассудков и культурных барьеров?
Сэмпл
Качество: HDRip
Формат видео: AVI
Видео: 720x400 (16:9), 23,976 fps, XviD, 2008 kbps, 0.291 bit/pixel
Аудио 1: AC-3, 448 kb/s, 6 ch, 48 kHz, Rus, Dub
Субтитры: Отсутствуют
ОбщееФормат : AVIФормат/Информация : Audio Video InterleaveРазмер файла : 1,37 ГбайтПродолжительность : 1 ч. 19 м.Общий поток : 2465 Кбит/секПрограмма кодирования : VirtualDubMod 1.5.10.2 (build 2540/release)

ВидеоИдентификатор : 0Формат : MPEG-4 VisualПрофиль формата : Advanced Simple@L5Параметр BVOP формата : 1Параметр QPel формата : НетПараметр GMC формата : Без точки переходаПараметр матрицы формата : ВыборочнаяИдентификатор кодека : XVIDИдентификатор кодека/Подсказка : XviDПродолжительность : 1 ч. 19 м.Битрейт : 2008 Кбит/секШирина : 720 пикселейВысота : 400 пикселейСоотношение сторон : 16:9Частота кадров : 23,976 кадра/секЦветовое пространство : YUVСубдискретизация насыщенности : 4:2:0Битовая глубина : 8 битТип развёртки : ПрогрессивнаяМетод сжатия : С потерямиБит/(Пиксели*Кадры) : 0.291Размер потока : 1,11 Гбайт (81%)Библиотека кодирования : XviD 1.2.1 (UTC 2008-12-04)

АудиоИдентификатор : 1Формат : AC-3Формат/Информация : Audio Coding 3Расширение режима : CM (complete main)Параметр Endianness формата : BigИдентификатор кодека : 2000Продолжительность : 1 ч. 19 м.Вид битрейта : ПостоянныйБитрейт : 448 Кбит/секКаналы : 6 каналовРасположение каналов : Front: L C R, Side: L R, LFEЧастота : 48,0 КГцМетод сжатия : С потерямиРазмер потока : 254 Мбайт (18%)Выравнивание : Разделение по промежуткамПродолжительность промежутка : 42 мс. (1,00 видеокадр)Время предзагрузки промежутка : 500 мс.


Внимание! AdBlock блокирует показ скриншотов, все вопросы к разработчикам )))
Трекер:  [ 03-Ноя-2015 07:30 ]

  

Скачать .torrent

Размер .torrent файла 14 KB


Размер: 1.37 GB
Хэш (hash) релиза: 2d191ca009bfad8034cf1b8d12ea569e7b888de5
Подписка на обновления:
dpd RU

Еще никто не оставлял запись к записи скачать торрент Эрнест и Селестина: Приключения мышки и медведя Ernest et Célestine . Будь первым!

!Обратная связь