Скачать порно через торрент Wife milked dick off UnionPeer.org бесплатно онлайн HD качество

Скачать новое порно 2015, 2014 новинки через торрент UnionPeer.org

Порно торрент бесплатно ЮнионПир.орг

Статистика раздачи
Размер:  164 MB   |    Зарегистрирован:  8 лет   |    .torrent скачан:  322 раза   |   
Раздают:  1  
 

Скачать Wife milked dick off [2015 г., fisting, masturbation, 720p] через torrent

 
 
Автор Сообщение

Galfimbul

avatar Galfimbul


Wife milked dick off [i]
Год производства: 2015 г.
Страна: other
Жанр: fisting, masturbation
Продолжительность: 00:10:45

Качество видео: WEB-DL
Формат видео: AVI
Видео: MPEG-4 Visual, 1280x720, 25,000 кадров/сек, 2058 Кбит/сек, 0.089
Аудио: MPEG Audio, 44,1 КГц, 2 канала, 56,0 Кбит/сек</span>
Общее
Полное имя : Wife milked dick off.avi
Формат : AVI
Формат/Информация : Audio Video Interleave
Размер файла : 164 Мбайт
Продолжительность : 10 м.
Общий поток : 2132 Кбит/сек

Видео
Идентификатор : 0
Формат : MPEG-4 Visual
Профиль формата : Simple@L3
Параметр BVOP формата : Нет
Параметр QPel формата : Нет
Параметр GMC формата : Без точки перехода
Параметр матрицы формата : Default (H.263)
Идентификатор кодека : XVID
Идентификатор кодека/Подсказка : XviD
Продолжительность : 10 м.
Битрейт : 2058 Кбит/сек
Ширина : 1280 пикселей
Высота : 720 пикселей
Соотношение сторон : 16:9
Частота кадров : 25,000 кадров/сек
Цветовое пространство : YUV
Субдискретизация насыщенности : 4:2:0
Битовая глубина : 8 бит
Тип развёртки : Прогрессивная
Метод сжатия : С потерями
Бит/(Пиксели*Кадры) : 0.089
Размер потока : 158 Мбайт (97%)
Библиотека кодирования : XviD 1.2.1 (UTC 2008-12-04)

Аудио
Идентификатор : 1
Формат : MPEG Audio
Версия формата : Version 1
Профиль формата : Layer 3
Режим : Joint stereo
Расширение режима : MS Stereo
Идентификатор кодека : 55
Идентификатор кодека/Подсказка : MP3
Продолжительность : 10 м.
Вид битрейта : Постоянный
Битрейт : 56,0 Кбит/сек
Каналы : 2 канала
Частота : 44,1 КГц
Метод сжатия : С потерями
Размер потока : 4,31 Мбайт (3%)
Выравнивание : Соединение по промежуткам
Продолжительность промежутка : 26 мс. (0,65 видеокадр)
try failed try failed try failed try failed try failed try failed try failed try failed try failed try failed try failed try failed try failed try failed try failed try failed


Внимание! AdBlock блокирует показ скриншотов, все вопросы к разработчикам )))
Трекер:  [ 08-Ноя-2015 16:30 ]

  

Скачать .torrent

Размер .torrent файла 13 KB


Размер: 164 MB
Хэш (hash) релиза: 7b7e004f18522fd19e1aab34c88ef19d8344ea27

Еще никто не оставлял запись к записи скачать торрент Wife milked dick off . Будь первым!

!Обратная связь