Скачать порно через торрент Homemade closeups fucking cum on ass UnionPeer.org бесплатно онлайн HD качество

Скачать новое порно 2015, 2014 новинки через торрент UnionPeer.org

Порно торрент бесплатно ЮнионПир.орг

Статистика раздачи
Размер:  165 MB   |    Зарегистрирован:  8 лет 6 месяцев   |    .torrent скачан:  798 раз   |   
Раздают:  1  
 

Скачать Homemade closeups fucking cum on ass [2015 г., Homemade, closeups, fucking, amateur, 720p] через torrent

 
 
Автор Сообщение

Galfimbul

avatar Galfimbul


Homemade closeups fucking cum on ass
[i]
Год производства: 2015 г.
Страна: other
Жанр: Homemade, closeups, fucking, amateur
Продолжительность: 00:10:52

Качество видео: CamRip
Формат видео: MPEG
Видео: AVC, 1280x720, 30,000 кадров/сек, 2048 Кбит/сек, 0.074
Аудио: AAC, 44,1 КГц, 1 канал, 56,0 Кбит/сек</span>
Общее
Полное имя : Homemade closeups fucking cum on ass
Формат : MPEG-4
Профиль формата : Base Media
Идентификатор кодека : isom
Размер файла : 165 Мбайт
Продолжительность : 10 м.
Общий поток : 2116 Кбит/сек
Дата записи : UTC 2015-09-22 14:21:28
Программа кодирования : Lavf56.25.101

Видео
Идентификатор : 1
Формат : AVC
Формат/Информация : Advanced Video Codec
Профиль формата : [email protected]
Параметр CABAC формата : Нет
Параметр ReFrames формата : 3 кадра
Идентификатор кодека : avc1
Идентификатор кодека/Информация : Advanced Video Coding
Продолжительность : 10 м.
Продолжительность оригинала : 10 м.
Битрейт : 2048 Кбит/сек
Ширина : 1280 пикселей
Высота : 720 пикселей
Соотношение сторон : 16:9
Режим частоты кадров : Переменный
Частота кадров : 30,000 кадров/сек
Минимальная частота кадров : 30,000 кадров/сек
Максимальная частота кадров : 30,191 кадров/сек
Цветовое пространство : YUV
Субдискретизация насыщенности : 4:2:0
Битовая глубина : 8 бит
Тип развёртки : Прогрессивная
Бит/(Пиксели*Кадры) : 0.074
Размер потока : 160 Мбайт (97%)
Размер потока оригинала : 160 Мбайт (97%)
Библиотека кодирования : x264 core 125
Настройки программы : cabac=0 / ref=3 / deblock=1:0:0 / analyse=0x1:0x111 / me=hex / subme=7 / psy=1 / psy_rd=1.00:0.00 / mixed_ref=1 / me_range=16 / chroma_me=1 / trellis=1 / 8x8dct=0 / cqm=0 / deadzone=21,11 / fast_pskip=1 / chroma_qp_offset=-2 / threads=1 / lookahead_threads=1 / sliced_threads=0 / nr=0 / decimate=1 / interlaced=0 / bluray_compat=0 / constrained_intra=0 / bframes=0 / weightp=0 / keyint=250 / keyint_min=25 / scenecut=40 / intra_refresh=0 / rc_lookahead=40 / rc=2pass / mbtree=1 / bitrate=2048 / ratetol=1.0 / qcomp=0.60 / qpmin=0 / qpmax=69 / qpstep=4 / cplxblur=20.0 / qblur=0.5 / ip_ratio=1.40 / aq=1:1.00
Язык : English
mdhd_Duration : 652544

Аудио
Идентификатор : 2
Формат : AAC
Формат/Информация : Advanced Audio Codec
Профиль формата : LC
Идентификатор кодека : 40
Продолжительность : 10 м.
Продолжительность оригинала : 10 м.
Вид битрейта : Постоянный
Битрейт : 56,0 Кбит/сек
Каналы : 1 канал
Расположение каналов : Front: C
Частота : 44,1 КГц
Метод сжатия : С потерями
Размер потока : 4,36 Мбайт (3%)
Размер потока оригинала : 4,36 Мбайт (3%)
Язык : English
mdhd_Duration : 652611
try failed try failed try failed try failed try failed try failed try failed try failed try failed try failed try failedtry failed try failed try failed try failed try failed try failed try failed try failed try failed try failed try failedtry failed try failed try failed try failed try failed try failed try failed try failed try failed try failed


Внимание! AdBlock блокирует показ скриншотов, все вопросы к разработчикам )))

Трекер:  [ 14-Ноя-2015 03:00 ]

  

Скачать .torrent

Размер .torrent файла 13 KB


Размер: 165 MB
Хэш (hash) релиза: 519d12e8f22421e37a62c583e840d86da06f2d65

Еще никто не оставлял запись к записи скачать торрент Homemade closeups fucking cum on ass . Будь первым!

!Обратная связь