Скачать порно через торрент Homemade public flashing UnionPeer.org бесплатно онлайн HD качество

Скачать новое порно 2015, 2014 новинки через торрент UnionPeer.org

Порно торрент бесплатно ЮнионПир.орг

Статистика раздачи
Размер:  157 MB   |    Зарегистрирован:  8 лет 6 месяцев   |    .torrent скачан:  438 раз   |   
Раздают:  1  
 

Скачать Homemade public flashing [2015 г., Exhibition, flashing, fetish, 720p] через torrent

 
 
Автор Сообщение

Galfimbul

avatar Galfimbul


Homemade public flashing


[i]
Год производства: 2015 г.
Страна: other
Жанр: Exhibition, flashing, fetish
Продолжительность: 00:10:17

Качество видео: CamRip
Формат видео: MPEG
Видео: AVC, 1280x720, 25,000 кадров/сек, 2067 Кбит/сек, 0.090
Аудио: AAC, 44,1 КГц, 2 канала, 56,0 Кбит/сек</span>
Общее
Полное имя : public_flashing.mp4
Формат : MPEG-4
Профиль формата : Base Media
Идентификатор кодека : isom
Размер файла : 157 Мбайт
Продолжительность : 10 м.
Общий поток : 2127 Кбит/сек
Программа кодирования : Lavf56.25.101

Видео
Идентификатор : 1
Формат : AVC
Формат/Информация : Advanced Video Codec
Профиль формата : [email protected]
Параметр CABAC формата : Нет
Параметр ReFrames формата : 3 кадра
Идентификатор кодека : avc1
Идентификатор кодека/Информация : Advanced Video Coding
Продолжительность : 10 м.
Битрейт : 2067 Кбит/сек
Ширина : 1280 пикселей
Высота : 720 пикселей
Соотношение сторон : 16:9
Режим частоты кадров : Постоянный
Частота кадров : 25,000 кадров/сек
Цветовое пространство : YUV
Субдискретизация насыщенности : 4:2:0
Битовая глубина : 8 бит
Тип развёртки : Прогрессивная
Бит/(Пиксели*Кадры) : 0.090
Размер потока : 152 Мбайт (97%)
Язык : English

Аудио
Идентификатор : 2
Формат : AAC
Формат/Информация : Advanced Audio Codec
Профиль формата : LC
Идентификатор кодека : 40
Продолжительность : 10 м.
Duration_FirstFrame : -19 мс.
Вид битрейта : Постоянный
Битрейт : 56,0 Кбит/сек
Каналы : 2 канала
Расположение каналов : Front: L R
Частота : 44,1 КГц
Метод сжатия : С потерями
Размер потока : 4,12 Мбайт (3%)
Язык : English
mdhd_Duration : 617585
try failed try failed try failed try failed try failed try failed try failed try failedtry failed try failed try failed try failed try failed try failed try failedtry failed try failed try failed try failed try failed try failed try failed try failedtry failed try failed try failed try failed try failed try failed try failed try failed try failed try failed try failedtry failed try failed try failed try failed try failed try failed try failed try failed try failed try failed try failed


Внимание! AdBlock блокирует показ скриншотов, все вопросы к разработчикам )))

Трекер:  [ 15-Ноя-2015 02:30 ]

  

Скачать .torrent

Размер .torrent файла 12 KB


Размер: 157 MB
Хэш (hash) релиза: 71b498dfaaff62e3abed7b5d5c89d4f051c167df

Еще никто не оставлял запись к записи скачать торрент Homemade public flashing . Будь первым!

!Обратная связь