Скачать порно через торрент [RodneyMoore.com] Annie Body, Cherry Poppens UnionPeer.org бесплатно онлайн HD качество

Скачать новое порно 2015, 2014 новинки через торрент UnionPeer.org

Порно торрент бесплатно ЮнионПир.орг

Статистика раздачи
Размер:  755 MB   |    Зарегистрирован:  8 лет 2 месяца   |    .torrent скачан:  860 раз   |   
Раздают:  1  
 

Скачать [RodneyMoore.com] Annie Body, Cherry Poppens (Double Red) Annie Body & Cherry Poppens [2005 г., Hairy, Threesome, Blowjob, POV, Cunnilingus, Cumshot, Red Heads] через torrent

 
 
Автор Сообщение

Galfimbul

avatar Galfimbul


Annie Body & Cherry Poppens
Имя актрисы: Annie Body, Cherry Poppens
Название ролика: Double Red
Подсайт и сайт: RodneyMoore.com

Год производства: 2005 г.
Жанр: Hairy, Threesome, Blowjob, POV, Cunnilingus, Cumshot, Red Heads
Продолжительность: 00:32:43

Описание: Cherry works the bar at a stripper club. But boss Rodney must let her go unless she can strip too. At first she''s shy, but hairy stripper Annie shows her how. Then she''s indoctrinated into the antics in the Backroom by Annie and Rodney. Wow, check out the matching thick red bushes these two girls have! They chow down on each other''s hairy pussies then together suck Rodney''s cock. Rodney gushes his cream all over Annie''s fur-covered butt hole. Cherry licks it right off her rear and the two of them swap a big load of goo.

Формат видео: MP4
Видео: MPEG4 Video (H264) 720x540 29.97fps 2965kbps [V: Apple Video Media Handler [eng] (h264 constrained baseline L3.0, yuv420p, 720x540, 2965 kb/s)]
Аудио: AAC 48000Hz stereo 255kbps [A: Apple Sound Media Handler [eng] (aac, 48000 Hz, stereo, 255 kb/s)]
Format : MPEG-4
Format profile : Base Media / Version 2
Codec ID : mp42
File size : 755 MiB
Duration : 32mn 43s
Overall bit rate : 3 225 Kbps
Encoded date : UTC 2014-11-03 21:51:11
Tagged date : UTC 2014-11-03 21:52:00

Video
ID : 1
Format : AVC
Format/Info : Advanced Video Codec
Format profile : [email protected]
Format settings, CABAC : No
Format settings, ReFrames : 2 frames
Codec ID : avc1
Codec ID/Info : Advanced Video Coding
Duration : 32mn 43s
Bit rate : 2 966 Kbps
Width : 720 pixels
Height : 540 pixels
Display aspect ratio : 4:3
Frame rate mode : Constant
Frame rate : 29.970 fps
Color space : YUV
Chroma subsampling : 4:2:0
Bit depth : 8 bits
Scan type : Progressive
Bits/(Pixel*Frame) : 0.255
Stream size : 694 MiB (92%)
Language : English
Encoded date : UTC 2014-11-03 21:51:08
Tagged date : UTC 2014-11-03 21:52:00
Color primaries : BT.601 NTSC
Transfer characteristics : BT.709
Matrix coefficients : BT.601

Audio
ID : 2
Format : AAC
Format/Info : Advanced Audio Codec
Format profile : LC
Codec ID : 40
Duration : 32mn 43s
Bit rate mode : Constant
Bit rate : 256 Kbps
Channel(s) : 2 channels
Channel positions : Front: L R
Sampling rate : 48.0 KHz
Compression mode : Lossy
Stream size : 59.9 MiB (8%)
Language : English
Encoded date : UTC 2014-11-03 21:51:08
Tagged date : UTC 2014-11-03 21:52:00
Благодарность за предоставленный материал Nuclear_Carlson

Внимание! AdBlock блокирует показ скриншотов, все вопросы к разработчикам )))
Трекер:  [ 15-Дек-2015 01:30 ]

  

Скачать .torrent

Размер .torrent файла 15 KB


Размер: 755 MB
Хэш (hash) релиза: 50c8d9b5df49a2c700cd3a1fcad8bf56d72ee03d

Еще никто не оставлял запись к записи скачать торрент [RodneyMoore.com] Annie Body, Cherry Poppens . Будь первым!

!Обратная связь