Скачать через торрент музыку VA - Dance Max 22 бесплатно без регистрации torrent

Статистика раздачи
Размер:  1.16 GB   |    Зарегистрирован:  10 лет   |    .torrent скачан:  132 раза   |   
Раздают:  1  
 

Скачать (EuroDance / EuroPop / EuroHouse) VA - Dance Max 22 (2CD) - 1997, FLAC (image+.cue) lossless через torrent

 
 
Автор Сообщение

L


Dance Max 22 (2CD) (Long Versions)

Жанр: EuroDance / EuroPop / EuroHouse
Страна-производитель диска: Germany
Издатель (лейбл): EMI Electrola
Год издания диска: 1997
Номер по каталогу: 7243 8 33266 2 4
Аудио кодек: FLAC (*.flac)
Тип рипа: image+.cue
Битрейт аудио: lossless
Продолжительность: 02:32:55
Наличие сканов в содержимом раздачи: да (.TIF , 600 dpi)
Битрейт аудио: lossless
Продолжительность: 01:15:55
Треклист:


[05:37] 01. Bellini - Samba de Janeiro
[03:55] 02. Jam & Spoon feat. Plavka - Kaleidoscope Skies
[05:06] 03. C-Block - Time Is Tickin' Away
[05:46] 04. A.K.S.W.I.F.T. - Light In Me
[06:20] 05. Nana - Lonely
[03:48] 06. Blue Boy - Remember Me
[03:59] 07. Da Funk - Around The World
[04:44] 08. Soundcage feat. Red Dogg - Ways Of Life
[03:09] 09. Sweetbox feat. D. Cristopher Taylor - I'll Die For You
[03:21] 10. Marky Mark - Feel The Vibe
[05:58] 11. Captain Jack feat. The Revolution Club - Holiday
[03:32] 12. Boyz - Round And Round
[03:43] 13. U96 - Seven Wonders
[03:33] 14. Gala - Freed From Desire
[05:21] 15. X-Perience - Mirror
[03:49] 16. Charlie Dore - Time Goes By
[03:56] 17. Members Of Mayday - Sonic Empire
 
Exact Audio Copy V0.99 prebeta 5 from 4. May 2009

Отчёт EAC об извлечении, выполненном 21. апреля 2011, 1:19

Various / Dance Max 22 (CD 1)

Дисковод: PHILIPS DVD-RAM SDVD8821 Adapter: 0 ID: 1

Режим чтения : ДостоверностьИспользование точного потока : ДаОтключение кэша аудио : ДаИспользование указателей C2 : Да

Коррекция смещения при чтении : 6Способность читать области Lead-in и Lead-out : НетЗаполнение пропущенных сэмплов тишиной : ДаУдаление блоков с тишиной в начале и конце : НетПри вычислениях CRC использовались нулевые сэмплы : ДаИнтерфейс : Встроенный Win32-интерфейс для Win NT/2000

Выходной формат : Внутренние WAV-операцииФормат сэмплов : 44.100 Гц; 16 бит; стерео

TOC извлечённого CD

Трек | Старт | Длительность | Начальный сектор | Конечный сектор --------------------------------------------------------------------- 1 | 0:00.00 | 5:37.55 | 0 | 25329 2 | 5:37.55 | 3:56.17 | 25330 | 43046 3 | 9:33.72 | 5:06.55 | 43047 | 66051 4 | 14:40.52 | 5:47.35 | 66052 | 92111 5 | 20:28.12 | 6:20.60 | 92112 | 120671 6 | 26:48.72 | 3:49.15 | 120672 | 137861 7 | 30:38.12 | 4:00.05 | 137862 | 155866 8 | 34:38.17 | 4:44.70 | 155867 | 177236 9 | 39:23.12 | 3:10.03 | 177237 | 191489 10 | 42:33.15 | 3:21.70 | 191490 | 206634 11 | 45:55.10 | 5:58.47 | 206635 | 233531 12 | 51:53.57 | 3:33.05 | 233532 | 249511 13 | 55:26.62 | 3:43.60 | 249512 | 266296 14 | 59:10.47 | 3:34.20 | 266297 | 282366 15 | 62:44.67 | 5:21.45 | 282367 | 306486 16 | 68:06.37 | 3:50.18 | 306487 | 323754 17 | 71:56.55 | 3:56.50 | 323755 | 341504

Характеристики диапазона извлечения и сообщения об ошибках

Выбранный диапазон

Имя файла C:\Documents and Settings\Admin\Рабочий стол\Рабочая\Dance Max 22\Dance Max 22 (CD 1).wav

Пиковый уровень 100.0 % Качество диапазона 99.9 % CRC теста 05D24AD9 CRC копии 05D24AD9 Копирование... OK

Ошибок не произошло

AccurateRip: сводка

Трек 1 точное извлечение (доверие 5) [2DD98D10]Трек 2 точное извлечение (доверие 6) [09780DE0]Трек 3 точное извлечение (доверие 6) [413ED1A3]Трек 4 точное извлечение (доверие 6) [72E01B6B]Трек 5 точное извлечение (доверие 6) [BDBFA27A]Трек 6 точное извлечение (доверие 6) [7881E977]Трек 7 точное извлечение (доверие 6) [12C30B6E]Трек 8 точное извлечение (доверие 6) [1C9A83A9]Трек 9 точное извлечение (доверие 6) [B7E15AF1]Трек 10 точное извлечение (доверие 6) [A279338C]Трек 11 точное извлечение (доверие 6) [F1C000CE]Трек 12 точное извлечение (доверие 6) [F0E7AF40]Трек 13 точное извлечение (доверие 6) [227C1D6E]Трек 14 точное извлечение (доверие 6) [AF3F6C94]Трек 15 точное извлечение (доверие 6) [615D8D3F]Трек 16 точное извлечение (доверие 6) [77D1227E]Трек 17 точное извлечение (доверие 6) [9D9B5A82]

Все треки извлечены точно

Конец отчёта
Битрейт аудио: lossless
Продолжительность: 01:17:11
Треклист:

[07:36] 01. Space Frog - Follow Me (Extended Version)
[07:19] 02. Brooklyn Bounce - Get Ready To Bounce (Extended Version)
[03:29] 03. DJ The Crow - Peace Of Mine (RadioEdit)
[03:50] 04. Energy 52 - Cafe Del Mar (RadioEdit)
[05:50] 05. Gorgeous - Don't Stop (Extended Version)
[05:59] 06. Celvin Rotane - Back Again (Extended Version)
[03:32] 07. Sequential One - I Wanna Make U... (RadioEdit)
[03:01] 08. Hypertrophy - Just Come Back To Me (RadioEdit)
[03:22] 09. Move Inc - Movin (RadioEdit)
[03:25] 10. DJ Quicksilver - Free (RadioEdit)
[05:39] 11. M. R. - Listen To Your Heart (Extended Version)
[03:41] 12. Zhi-Vago - Teardrops From Heaven (RadioEdit)
[03:43] 13. Blümchen - Nur getrдumt (RadioEdit)
[05:11] 14. Raver's Nature - You Blow My Mind (Extended Version)
[03:47] 15. Latin Thing - Latinos Del Mundo (RadioEdit)
[03:53] 16. Boy George - Love Is Leaving (RadioEdit)
[03:45] 17. Million - Money (RadioEdit)
 
Exact Audio Copy V0.99 prebeta 5 from 4. May 2009

Отчёт EAC об извлечении, выполненном 21. апреля 2011, 1:41

Various / Dance Max 22 (CD 2)

Дисковод: PHILIPS DVD-RAM SDVD8821 Adapter: 0 ID: 1

Режим чтения : ДостоверностьИспользование точного потока : ДаОтключение кэша аудио : ДаИспользование указателей C2 : Да

Коррекция смещения при чтении : 6Способность читать области Lead-in и Lead-out : НетЗаполнение пропущенных сэмплов тишиной : ДаУдаление блоков с тишиной в начале и конце : НетПри вычислениях CRC использовались нулевые сэмплы : ДаИнтерфейс : Встроенный Win32-интерфейс для Win NT/2000

Выходной формат : Внутренние WAV-операцииФормат сэмплов : 44.100 Гц; 16 бит; стерео

TOC извлечённого CD

Трек | Старт | Длительность | Начальный сектор | Конечный сектор --------------------------------------------------------------------- 1 | 0:00.00 | 7:36.65 | 0 | 34264 2 | 7:36.65 | 7:19.72 | 34265 | 67261 3 | 14:56.62 | 3:30.28 | 67262 | 83039 4 | 18:27.15 | 3:50.67 | 83040 | 100356 5 | 22:18.07 | 5:50.43 | 100357 | 126649 6 | 28:08.50 | 6:00.10 | 126650 | 153659 7 | 34:08.60 | 3:33.35 | 153660 | 169669 8 | 37:42.20 | 3:01.65 | 169670 | 183309 9 | 40:44.10 | 3:23.05 | 183310 | 198539 10 | 44:07.15 | 3:26.40 | 198540 | 214029 11 | 47:33.55 | 5:39.72 | 214030 | 239526 12 | 53:13.52 | 3:42.28 | 239527 | 256204 13 | 56:56.05 | 3:44.05 | 256205 | 273009 14 | 60:40.10 | 5:12.02 | 273010 | 296411 15 | 65:52.12 | 3:48.00 | 296412 | 313511 16 | 69:40.12 | 3:54.38 | 313512 | 331099 17 | 73:34.50 | 3:45.10 | 331100 | 347984

Характеристики диапазона извлечения и сообщения об ошибках

Выбранный диапазон

Имя файла C:\Documents and Settings\Admin\Рабочий стол\Рабочая\Dance Max 22\Dance Max 22 (CD 2).wav

Пиковый уровень 99.9 % Качество диапазона 100.0 % CRC теста 7D851C57 CRC копии 7D851C57 Копирование... OK

Ошибок не произошло

AccurateRip: сводка

Трек 1 точное извлечение (доверие 5) [730A807C]Трек 2 точное извлечение (доверие 6) [D144ECE6]Трек 3 точное извлечение (доверие 6) [F238EDBD]Трек 4 точное извлечение (доверие 6) [9A664033]Трек 5 точное извлечение (доверие 6) [F0BFD53A]Трек 6 точное извлечение (доверие 6) [A9FDE208]Трек 7 точное извлечение (доверие 6) [B2151E3F]Трек 8 точное извлечение (доверие 6) [3A61CD47]Трек 9 точное извлечение (доверие 6) [2623BB1F]Трек 10 точное извлечение (доверие 6) [D429863D]Трек 11 точное извлечение (доверие 6) [A35CC41F]Трек 12 точное извлечение (доверие 6) [51BFDFA6]Трек 13 точное извлечение (доверие 6) [3559514B]Трек 14 точное извлечение (доверие 6) [AC0D911C]Трек 15 точное извлечение (доверие 6) [77C0D2D9]Трек 16 точное извлечение (доверие 6) [04E9364B]Трек 17 точное извлечение (доверие 6) [B72AB564]

Все треки извлечены точно

Конец отчёта


Внимание! AdBlock блокирует показ скриншотов, все вопросы к разработчикам )))
Трекер:  [ 29-Апр-2011 07:40 ]

  

Скачать .torrent

Размер .torrent файла 13 KB


Размер: 1.16 GB
Хэш (hash) релиза: 1993ce63c8c214a6de38e4c49098afd951fabc6f

Еще никто не оставлял запись к записи скачать торрент VA - Dance Max 22 . Будь первым!

!Обратная связь