Скачать через торрент Тупик Standoff Фильм бесплатно в хорошем качестве torrent

Скачивайте на UnionPeer.org фильмы через торрент без регистрации. Новинки кино в хорошем качестве через торрент. На UnionPeer.org можно скачать через торрент фильмы 2014 и 2015 годов. Самые новые фильмы.

Скачать торрент Тупик Standoff бесплатно через .torrent фильм мультфильм сериал

Статистика раздачи
Размер:  2.73 GB   |    Зарегистрирован:  8 лет 2 месяца   |    .torrent скачан:  1125 раз   |   
Раздают:  1  
 

Скачать Тупик / Standoff (Адам Аллека) [2015, драма, WEB-DL 720p] через torrent

 
 
Автор Сообщение

Galfimbul

avatar Galfimbul


Название: Тупик
Оригинальное название: Standoff
Год выхода: 2015
Жанр: драма
Режиссер: Адам Аллека
В ролях: Томас Джейн, Лоренс Фишбёрн, Элла Бэллентайн, Джим Уотсон, Джон Тенч, Лаура ДеКартере, Тед Атертон, Джоанна Дуглас

О фильме: Ветеран войны Картер с дробовиком наперевес вынужден защищать двенадцатилетнюю девочку, ставшую свидетелем убийства.



Выпущено: США / Goldrush Entertainment, First Point Entertainment, Maple Leaf Films
Продолжительность: 01:26:03
Озвучивание: Любительское (многоголосое) [Sunshine Studio & Parovoz Production]

Файл
Формат: MKV
Качество: WEB-DL 720p
Видео: MPEG-4 AVC, 3813 kb/s, 1280x532
Аудио: Russian: AC3, 256 kb/s (2 ch) / English: AC3, 384 kb/s (6 ch)
Format : Matroska
Format version : Version 2
File size : 2.73 GiB
Duration : 1h 26mn
Overall bit rate : 4 544 Kbps
Encoded date : UTC 2015-12-28 18:06:16
Writing application : mkvmerge v7.8.0 ('River Man') 32bit built on Apr 3 2015 12:11:22
Writing library : libebml v1.3.1 + libmatroska v1.4.2

Video
ID : 1
Format : AVC
Format/Info : Advanced Video Codec
Format profile : [email protected]
Format settings, CABAC : No
Format settings, ReFrames : 2 frames
Codec ID : V_MPEG4/ISO/AVC
Duration : 1h 26mn
Bit rate : 3 813 Kbps
Width : 1 280 pixels
Height : 532 pixels
Display aspect ratio : 2.40:1
Frame rate mode : Constant
Frame rate : 23.976 fps
Color space : YUV
Chroma subsampling : 4:2:0
Bit depth : 8 bits
Scan type : Progressive
Bits/(Pixel*Frame) : 0.234
Stream size : 2.29 GiB (84%)
Language : English
Default : Yes
Forced : No
Color range : Limited
Color primaries : BT.709
Transfer characteristics : BT.709
Matrix coefficients : BT.709

Audio #1
ID : 2
Format : AC-3
Format/Info : Audio Coding 3
Mode extension : CM (complete main)
Format settings, Endianness : Big
Codec ID : A_AC3
Duration : 1h 26mn
Bit rate mode : Constant
Bit rate : 256 Kbps
Channel(s) : 2 channels
Channel positions : Front: L R
Sampling rate : 48.0 KHz
Bit depth : 16 bits
Compression mode : Lossy
Stream size : 158 MiB (6%)
Language : Russian
Default : Yes
Forced : No

Audio #2
ID : 3
Format : AC-3
Format/Info : Audio Coding 3
Mode extension : CM (complete main)
Format settings, Endianness : Big
Codec ID : A_AC3
Duration : 1h 26mn
Bit rate mode : Constant
Bit rate : 384 Kbps
Channel(s) : 6 channels
Channel positions : Front: L C R, Side: L R, LFE
Sampling rate : 48.0 KHz
Bit depth : 16 bits
Compression mode : Lossy
Stream size : 236 MiB (8%)
Language : English
Default : No
Forced : No

Menu
00:00:00.000 : en:Chapter 1
00:23:32.000 : en:Chapter 2
00:55:30.000 : en:Chapter 3
01:20:22.000 : en:Chapter 4






Внимание! AdBlock блокирует показ скриншотов, все вопросы к разработчикам )))
Трекер:  [ 30-Дек-2015 19:30 ]

  

Скачать .torrent

Размер .torrent файла 14 KB


Размер: 2.73 GB
Хэш (hash) релиза: f622ffce349398c5eea861b1c36f350834d53863
Подписка на обновления:

Еще никто не оставлял запись к записи скачать торрент Тупик Standoff . Будь первым!

!Обратная связь