Скачать через торрент Тупик Standoff Фильм бесплатно в хорошем качестве torrent

Скачивайте на UnionPeer.org фильмы через торрент без регистрации. Новинки кино в хорошем качестве через торрент. На UnionPeer.org можно скачать через торрент фильмы 2014 и 2015 годов. Самые новые фильмы.

Скачать торрент Тупик Standoff бесплатно через .torrent фильм мультфильм сериал

Статистика раздачи
Размер:  743 MB   |    Зарегистрирован:  2 года 9 месяцев   |    .torrent скачан:  1043 раза   |   
Раздают:  1  
   
загрузка...
 
Автор Сообщение

Galfimbul

avatar Galfimbul


Тупик / Standoff

Страна: США
Жанр: триллер
Год выпуска: 2016
Продолжительность: 01:26:02

Перевод: Любительский (многоголосый закадровый) Sunshine Studio & Parovoz Production
Cубтитры: нет
Режиссер: Адам Аллека / Adam Alleca

В ролях: Томас Джейн, Лоренс Фишбёрн, Элла Бэллентайн, Джим Уотсон, Джон Тенч, Лаура ДеКартере, Тед Атертон, Джоанна Дуглас

Описание: Ветеран войны Картер с дробовиком наперевес вынужден защищать двенадцатилетнюю девочку, ставшую свидетелем убийства.

Сэмпл: http://multi-up.com/1082521

Качество видео: WEB-DLRip
Формат видео: AVI

Видео: 688x288 (2.39:1), 23.976 fps, XviD build 73 ~1069 kbps avg, 0.23 bit/pixel
Аудио: 48 kHz, MPEG Layer 3, 2 ch, ~128.00 kbps avg
Формат : AVI
Формат/Информация : Audio Video Interleave
Размер файла : 743 Мбайт
Продолжительность : 1 ч. 26 м.
Общий поток : 1207 Кбит/сек
Программа кодирования : VirtualDubMod 1.5.10.3 | www.virtualdub-fr.org || (build 2550/release)
Библиотека кодирования : VirtualDubMod build 2550/release

Видео
Идентификатор : 0
Формат : MPEG-4 Visual
Профиль формата : Advanced Simple@L5
Параметр BVOP формата : 1
Параметр QPel формата : Нет
Параметр GMC формата : Без точки перехода
Параметр матрицы формата : Выборочная
Идентификатор кодека : XVID
Идентификатор кодека/Подсказка : XviD
Продолжительность : 1 ч. 26 м.
Битрейт : 1070 Кбит/сек
Ширина : 688 пикселей
Высота : 288 пикселей
Соотношение сторон : 2,40:1
Частота кадров : 23,976 (23976/1000) кадра/сек
Цветовое пространство : YUV
Субдискретизация насыщенности : 4:2:0
Битовая глубина : 8 бит
Тип развёртки : Прогрессивная
Метод сжатия : С потерями
Бит/(Пиксели*Кадры) : 0.225
Размер потока : 658 Мбайт (89%)
Библиотека кодирования : XviD 73

Аудио
Идентификатор : 1
Формат : MPEG Audio
Версия формата : Version 1
Профиль формата : Layer 3
Идентификатор кодека : 55
Идентификатор кодека/Подсказка : MP3
Продолжительность : 1 ч. 26 м.
Вид битрейта : Постоянный
Битрейт : 128 Кбит/сек
Каналы : 2 канала
Частота : 48,0 КГц
Метод сжатия : С потерями
Размер потока : 78,8 Мбайт (11%)
Выравнивание : Соединение по промежуткам
Продолжительность промежутка : 42 мс. (1,00 видеокадр)
Время предзагрузки промежутка : 504 мс.
Библиотека кодирования : LAME3.99r
Настройки программы : -m s -V 4 -q 2 -lowpass 17 -b 128


Трекер:  [ 04-Янв-2016 23:00 ]

  

Скачать .torrent

Размер .torrent файла 15 KB


Размер: 743 MB
Хэш (hash) релиза: 80973cc99a6dd16b1bc2d66f7b8f42d603be6cd5
Подписка на обновления:

Еще никто не оставлял запись к записи скачать торрент Тупик Standoff . Будь первым!

!Обратная связь