Скачать через торрент Парадокс Paradox Фильм бесплатно в хорошем качестве torrent

Скачивайте на UnionPeer.org фильмы через торрент без регистрации. Новинки кино в хорошем качестве через торрент. На UnionPeer.org можно скачать через торрент фильмы 2014 и 2015 годов. Самые новые фильмы.

Скачать торрент Парадокс Paradox бесплатно через .torrent фильм мультфильм сериал

Статистика раздачи
Размер:  7.98 GB   |    Зарегистрирован:  12 лет   |    .torrent скачан:  74 раза   |   
Раздают:  1  
   
 
Автор Сообщение

L


Парадокс / Paradox

Страна: Канада
Студия: Arcana Studio
Жанр: фантастика, триллер
Год выпуска: 2010
Продолжительность: 01:26:05
Перевод: Профессиональный (многоголосый закадровый) [ТВ3]
Cубтитры: нет
Оригинальная аудиодорожка: английский

Режиссер: Брентон Спенсер / Brenton Spencer

В ролях: Кевин Сорбо, Стеф Сонг, Кристофер Джадж, Алан С. Петерсон, Элисен Даун, Джерри Вассерман

Описание: В параллельной вселенной, где всем управляет магия, детектив Шон Нолт расследует серию загадочных убийств, совершенных при помощи невероятного для этого мира явления - науки. В поисках разгадки, Шон выходит на группу так называемых "прагматиков", уверенных, что наука это не просто детские сказки и узнаёт о существовании другого измерения...



Тип релиза: BDRip 1080p
Контейнер: MKV

Видео: AVC,1920x1080,11.6 Mbps,23.976 fps,0.233 bits
Аудио 1: Russian:48 kHz, AC3, 3/2 (L,C,R,l,r) + LFE ch, ~192.00 kbps avg
Аудио 2: English: 48 kHz, DTS, 3/2 (L,C,R,l,r) + LFE ch, ~1536.00 kbps avg
General
Unique ID : 228110420978221536586797589315398122950 (0xAB9C7812EE7E4E16A40D977843DBBDC6)
Complete name : D:\Торенты\Paradoks.2010.x264.BDRip.1080p.mkv
Format : Matroska
File size : 7.98 GiB
Duration : 1h 26mn
Overall bit rate : 13.3 Mbps
Encoded date : UTC 2011-05-02 18:11:04
Writing application : mkvmerge v4.7.0 ('Just Like You Imagined') сборка от Apr 21 2011 01:13:14
Writing library : libebml v1.2.0 + libmatroska v1.1.0

Video
ID : 1
Format : AVC
Format/Info : Advanced Video Codec
Format profile : [email protected]
Format settings, CABAC : Yes
Format settings, ReFrames : 4 frames
Codec ID : V_MPEG4/ISO/AVC
Duration : 1h 26mn
Bit rate : 11.6 Mbps
Width : 1 920 pixels
Height : 1 080 pixels
Display aspect ratio : 16:9
Frame rate : 23.976 fps
Color space : YUV
Chroma subsampling : 4:2:0
Bit depth : 8 bits
Scan type : Progressive
Bits/(Pixel*Frame) : 0.233
Stream size : 6.79 GiB (85%)
Writing library : x264 core 114 r1924 08d04a4
Encoding settings : cabac=1 / ref=4 / deblock=1:-3:-3 / analyse=0x3:0x133 / me=umh / subme=10 / psy=1 / psy_rd=1.05:0.10 / mixed_ref=1 / me_range=64 / chroma_me=1 / trellis=2 / 8x8dct=1 / cqm=0 / deadzone=21,11 / fast_pskip=1 / chroma_qp_offset=-3 / threads=9 / sliced_threads=0 / nr=0 / decimate=1 / interlaced=0 / constrained_intra=0 / bframes=11 / b_pyramid=2 / b_adapt=2 / b_bias=0 / direct=3 / weightb=1 / open_gop=0 / weightp=2 / keyint=250 / keyint_min=23 / scenecut=40 / intra_refresh=0 / rc_lookahead=60 / rc=2pass / mbtree=1 / bitrate=11563 / ratetol=1.0 / qcomp=0.70 / qpmin=0 / qpmax=69 / qpstep=4 / cplxblur=20.0 / qblur=0.5 / vbv_maxrate=50000 / vbv_bufsize=62500 / nal_hrd=none / ip_ratio=1.40 / aq=1:0.90

Audio #1
ID : 2
Format : AC-3
Format/Info : Audio Coding 3
Mode extension : CM (complete main)
Codec ID : A_AC3
Duration : 1h 26mn
Bit rate mode : Constant
Bit rate : 192 Kbps
Channel(s) : 2 channels
Channel positions : Front: L R
Sampling rate : 48.0 KHz
Bit depth : 16 bits
Compression mode : Lossy
Stream size : 118 MiB (1%)
Title : Профессиональный многоголосый (ТВ3)
Language : Russian

Audio #2
ID : 3
Format : DTS
Format/Info : Digital Theater Systems
Codec ID : A_DTS
Duration : 1h 26mn
Bit rate mode : Constant
Bit rate : 1 510 Kbps
Channel(s) : 6 channels
Channel positions : Front: L C R, Side: L R, LFE
Sampling rate : 48.0 KHz
Bit depth : 16 bits
Compression mode : Lossy
Stream size : 930 MiB (11%)
Language : English


Внимание! AdBlock блокирует показ скриншотов, все вопросы к разработчикам )))
Трекер:  [ 04-Май-2011 14:40 ]

  

Скачать .torrent

Размер .torrent файла 40 KB


Размер: 7.98 GB
Хэш (hash) релиза: f7461445e44674ed5364451056ddd6d2837f0555
Подписка на обновления:

Торренты, похожие на Парадокс Paradox скачать торрент

Форум Название Автор Размер S L Добавлен
Зарубежные фильмы 2016-2019 (Новинки зарубежного кино) ·· Парадокс / Paradox (Майкл Херст) [2016, боевик, драма, WEB-DL 1080p] Galfimbul 38169242993.55 GB 0 0 1466091681

18:41

16-Июн-16

Зарубежные фильмы 2016-2019 (Новинки зарубежного кино) ·· Парадокс / Paradox (Майкл Херст) [2016, боевик, драма, HDRip] Galfimbul 14844252161.38 GB 0 0 1466084435

16:40

16-Июн-16

Зарубежные фильмы 2016-2019 (Новинки зарубежного кино) ·· Парадокс / Paradox (Майкл Херст) [2016, боевик, драма, WEB-DLRip] Galfimbul 15615180801.45 GB 0 0 1466082619

16:10

16-Июн-16

Зарубежные фильмы до 2016 ·· Парадокс / Paradox (Брентон Спенсер / Brenton Spencer) [2010, Канада, фантастика, триллер, ужасы, BDRip-AVC] MVO (ТВ3) Bot 14809441981.38 GB 0 0 1393140583

10:29

23-Фев-14

Зарубежные сериалы ·· Парадокс / Paradox / Сезон: 1 / Серии: 1-5 (Саймон Селлан Джоунс, Омар Мадха) [2009, Фантастика, триллер, драма, криминал, Blu-Ray] MaTaDoRe 3850442393635.86 GB 0 0 1309733855

01:57

4-Июл-11

Зарубежные фильмы до 2016 ·· Парадокс / Paradox (Брентон Спенсер / Brenton Spencer) [2010, Канада, фантастика, триллер, ужасы, BDRip] MVO (ТВ3) Sabin 15870976001.48 GB 0 0 1305792004

11:00

19-Май-11

Зарубежные фильмы до 2016 ·· Парадокс / Paradox (Брентон Спенсер / Brenton Spencer) [2010, Канада, фантастика, триллер, ужасы, HDRip] MVO (ТВ3) Alex0007 783257600747 MB 0 0 1303926755

20:52

27-Апр-11

Зарубежные фильмы до 2016 ·· Парадокс / Paradox (Брентон Спенсер / Brenton Spencer) [2010 г., фантастика, триллер, BDRemux 1080p [url=https://adult-images.ru/1024/35489/]Смотреть онлайн[/url] [url=https://adult-images.ru/1024/35489/]Смотреть онлайн[/url]] MVO sebladec 1739348672716.2 GB 0 0 1303829116

17:45

26-Апр-11

Зарубежные фильмы 2016-2019 (Новинки зарубежного кино) ·%· Парадокс Кловерфилда / Частица Бога / The Cloverfield Paradox (2018) BDRip-HEVC 1080p от HANNIBAL | P Galfimbul 68323439596.36 GB 0 0 1549219241

21:40

3-Фев-19

Зарубежные фильмы 2016-2019 (Новинки зарубежного кино) ·%· Парадокс Кловерфилда / Частица Бога / The Cloverfield Paradox (2018) BDRip 720p от k.e.n & MegaPeer | P, A Galfimbul 51038759774.75 GB 0 0 1549207212

18:20

3-Фев-19

Зарубежные фильмы 2016-2019 (Новинки зарубежного кино) ·%· Парадокс Кловерфилда / Частица Бога / The Cloverfield Paradox (2018) BDRip-AVC от OlLanDGroup | P Galfimbul 23480256992.19 GB 0 0 1549138210

23:10

2-Фев-19

Зарубежные фильмы 2016-2019 (Новинки зарубежного кино) ·%· Парадокс Кловерфилда / The Cloverfield Paradox (2018) BDRemux 1080р | P, A Galfimbul 2449101477122.81 GB 0 0 1549095014

11:10

2-Фев-19

Зарубежные фильмы до 2016 ·· Парадокс Кловерфилда / The Cloverfield Paradox (Джулиус Она / Julius Onah) [2018, США, ужасы, фантастика, триллер, детектив, WEBRip 720p] 2x MVO (NewStudio, Jaskier) + VO (BadBajo) + Sub (Rus, Eng) + Original (Eng) Galfimbul 46221806814.3 GB 0 0 1520100310

21:05

3-Мар-18

Зарубежные фильмы 2016-2019 (Новинки зарубежного кино) ·· Парадокс Кловерфилда / Частица Бога / The Cloverfield Paradox (Джулиус Она) [2018, ужасы, фантастика, триллер, детектив, WEBRip] NewStudio Galfimbul 15679733761.46 GB 0 0 1518523228

15:00

13-Фев-18

Зарубежные фильмы 2016-2019 (Новинки зарубежного кино) ·· Парадокс Кловерфилда / Частица Бога / The Cloverfield Paradox (Джулиус Она) [2018, ужасы, фантастика, триллер, детектив, WEBRip 1080p] NewStudio, BaibaKo Galfimbul 90043714968.39 GB 0 0 1518505245

10:00

13-Фев-18

Зарубежные фильмы 2016-2019 (Новинки зарубежного кино) ·· Парадокс Кловерфилда / Частица Бога / The Cloverfield Paradox (Джулиус Она) [2018, ужасы, фантастика, триллер, детектив, WEBRip-AVC] BaibaKo Galfimbul 26756803252.49 GB 0 0 1518054615

04:50

8-Фев-18

Зарубежные фильмы 2016-2019 (Новинки зарубежного кино) ·· Парадокс Кловерфилда / Частица Бога / The Cloverfield Paradox (Джулиус Она) [2018, ужасы, фантастика, триллер, детектив, WEBRip] BaibaKo Galfimbul 15654326381.46 GB 0 0 1518015017

17:50

7-Фев-18

Зарубежные фильмы 2016-2019 (Новинки зарубежного кино) ·· Парадокс Кловерфилда / Частица Бога / The Cloverfield Paradox (Джулиус Она) [2018, ужасы, фантастика, триллер, детектив, WEBRip 1080p] BaibaKo Galfimbul 90186713178.4 GB 0 0 1517995885

12:31

7-Фев-18

Зарубежные фильмы 2016-2019 (Новинки зарубежного кино) ·· Парадокс Кловерфилда / Частица Бога / The Cloverfield Paradox (Джулиус Она) [2018, ужасы, фантастика, триллер, детектив, WEBRip] BaibaKo Galfimbul 15605800961.45 GB 0 0 1517991627

11:20

7-Фев-18

Еще никто не оставлял запись к записи скачать торрент Парадокс Paradox . Будь первым!

!Обратная связь