Скачать через торрент Разоблачение Дочь Бога Фильм бесплатно в хорошем качестве torrent

Скачивайте на UnionPeer.org фильмы через торрент без регистрации. Новинки кино в хорошем качестве через торрент. На UnionPeer.org можно скачать через торрент фильмы 2014 и 2015 годов. Самые новые фильмы.

Скачать торрент Разоблачение Дочь Бога бесплатно через .torrent фильм мультфильм сериал

Статистика раздачи
Размер:  1.36 GB   |    Зарегистрирован:  2 года 8 месяцев   |    .torrent скачан:  421 раз   |   
Раздают:  1  
   
загрузка...
 
Автор Сообщение

Galfimbul

avatar Galfimbul


Разоблачение (Дочь Бога) / Exposed

Страна: США
Жанр: Драма
Год выпуска: 2016
Продолжительность: 01:42:21

Перевод: Субтитры
Cубтитры: русские
Оригинальная аудиодорожка: английский

Режиссер: Деклан Дэйл / Declan Dale

В ролях: Киану Ривз
Ана де Армас
Мира Сорвино
Биг Дэдди Кэйн
Кристофер МакДональд
Лаура Гомез
Клара Вонг
Майкл Рисполи
Дения Браче

Описание: С женщиной, которая стала свидетелем чуда, начинают происходить странные вещи. А в это время полицейский детектив пытается разобраться в том, что привело к смерти его напарника.

Доп. информация: слоган: «Some secrets are better left buried»/ Некоторые секреты лучше не раскрывать.

Сэмпл: http://multi-up.com/1086883

Качество видео: HDRip (исходник: BDRip)
Формат видео: AVI

Видео: XVID, 720x304, 2.35:1, 23.976 fps, 1 508 Kbps
Аудио: 48 kHz, AC-3, 6 channels , 384 Kbps
Формат субтитров: softsub (SRT)
Доп. информация о субтитрах: Перевод: lucky_ann, peyngel, gibyz, moore56y
General
Format : AVI
Format/Info : Audio Video Interleave
File size : 1.36 GiB
Duration : 1h 42mn
Overall bit rate : 1 901 Kbps
Writing application : VirtualDubMod 1.5.10.2 (build 2542/release)
Writing library : VirtualDubMod build 2542/release
Copyright : SaM

Video
ID : 0
Format : MPEG-4 Visual
Format profile : Advanced Simple@L5
Format settings, BVOP : 2
Format settings, QPel : No
Format settings, GMC : No warppoints
Format settings, Matrix : Default (H.263)
Muxing mode : Packed bitstream
Codec ID : XVID
Codec ID/Hint : XviD
Duration : 1h 42mn
Bit rate : 1 508 Kbps
Width : 720 pixels
Height : 304 pixels
Display aspect ratio : 2.35:1
Frame rate : 23.976 fps
Color space : YUV
Chroma subsampling : 4:2:0
Bit depth : 8 bits
Scan type : Progressive
Compression mode : Lossy
Bits/(Pixel*Frame) : 0.287
Stream size : 1.08 GiB (79%)
Writing library : XviD 66

Audio
ID : 1
Format : AC-3
Format/Info : Audio Coding 3
Mode extension : CM (complete main)
Format settings, Endianness : Big
Codec ID : 2000
Duration : 1h 42mn
Bit rate mode : Constant
Bit rate : 384 Kbps
Channel(s) : 6 channels
Channel positions : Front: L C R, Side: L R, LFE
Sampling rate : 48.0 KHz
Bit depth : 16 bits
Compression mode : Lossy
Stream size : 281 MiB (20%)
Alignment : Aligned on interleaves
Interleave, duration : 42 ms (1.00 video frame)
Interleave, preload duratio : 512 ms
2
00:02:23,810 --> 00:02:25,310
Изабель!

3
00:02:26,330 --> 00:02:27,840
Как дела?

4
00:02:27,870 --> 00:02:29,270
Нормально.

5
00:02:29,290 --> 00:02:30,910
Немного устала, но всё нормально.

6
00:02:35,220 --> 00:02:37,220
Мы уходим.

7
00:02:37,220 --> 00:02:38,490
Почему?

8
00:02:38,490 --> 00:02:40,220
Серьезно?

9
00:02:40,220 --> 00:02:43,660
Я не шучу. Нам пора, пойдём.

10
00:02:55,200 --> 00:02:57,570
Мануэль, Мануэль.

11
00:02:59,030 --> 00:03:00,650
– Что?
– Оставайтесь.

12
00:03:00,680 --> 00:03:02,980
Пожалуйста, оставайтесь. Выпьете, потанцуете.

13
00:03:03,360 --> 00:03:04,390
За меня не переживайте.

14
00:03:04,780 --> 00:03:06,250
Рокки!

15
00:03:06,750 --> 00:03:09,220
Как ты, брат?

16
00:03:09,220 --> 00:03:10,720
Как дела?

17
00:03:12,250 --> 00:03:14,390
Не может быть.

18
00:03:14,390 --> 00:03:17,290
Ты что, меня не узнаёшь? Это я, Нальдо!

19
00:03:17,290 --> 00:03:19,660
Нальдо.
– Какой Нальдо?

20
00:03:19,660 --> 00:03:21,330
Нальдо Руиз. Нальдо!

21
00:03:23,470 --> 00:03:24,630
Ты сколько отсидел?

22
00:03:24,630 --> 00:03:26,370
Очень долго, чувак!


Трекер:  [ 31-Янв-2016 23:00 ]

  

Скачать .torrent

Размер .torrent файла 14 KB


Размер: 1.36 GB
Хэш (hash) релиза: a4bea2fcd1850659003d5913ca91b62b820326ef
Подписка на обновления:

Еще никто не оставлял запись к записи скачать торрент Разоблачение Дочь Бога . Будь первым!

!Обратная связь