Скачать через торрент Клетка для чудаков Клетка для безумцев Фильм бесплатно в хорошем качестве torrent

Скачивайте на UnionPeer.org фильмы через торрент без регистрации. Новинки кино в хорошем качестве через торрент. На UnionPeer.org можно скачать через торрент фильмы 2014 и 2015 годов. Самые новые фильмы.

Скачать торрент Клетка для чудаков Клетка для безумцев бесплатно через .torrent фильм мультфильм сериал

Статистика раздачи
Размер:  4.28 GB   |    Зарегистрирован:  8 лет 1 месяц   |    .torrent скачан:  38 раз   |   
Раздают:  1  
   
 
Автор Сообщение

Galfimbul

avatar Galfimbul


Клетка для чудаков / Клетка для безумцев / La cage aux folles

Страна: Франция, Италия
Жанр: комедия
Год выпуска: 1978
Продолжительность: 01:36:57

Перевод: Профессиональный (многоголосый закадровый)
Перевод 2: Профессиональный (многоголосый закадровый)
Cубтитры: английские
Оригинальная аудиодорожка: французский

Режиссер: Эдуар Молинаро / Edouard Molinaro

В ролях: Уго Тоньяцци, Мишель Серро, Клер Морье, Мишель Галабрю

Описание: Двое немолодых гомосексуалистов, живущих много лет в Сен-Тропезе, вынуждены изменить стиль жизни, когда сын одного из них объявляет о своем намерении женится. Поскольку невеста из семьи строгих правил, ее родители не должны узнать, что отец их будущего зятя – гей. Героям предстоит скрыть свой образ жизни, когда невеста парня и ее родители приезжают знакомиться с будущей родней.

Премия "Сезар" (1978): лучший актер (Мишель Серро)
Премия "Золотой глобус" (1979): лучший иностранный фильм

Сэмпл: http://multi-up.com/1087094

Тип релиза: BDRip 720p
Контейнер: MKV

Видео: V_MPEG4/ISO/AVC, 1200x720 pixels, 1.667, 5 620 Kbps, 23.976 fps
Аудио: Русский поверх английского, AC-3, 2 channels, 48.0 KHz, 192 Kbps
Аудио 2: Русский поверх французского, AC-3, 2 channels, 48.0 KHz, 192 Kbps
Аудио 3: Оригинальный французский, AC-3, 1 channel, 48.0 KHz, 192 Kbps
Формат субтитров: softsub (SRT)
General
Unique ID : 181895834588585514540084002464264275333 (0x88D7DD0BABF65D569DF7645E2FEAC585)
Complete name : D:\temp\LaCageAuxFolles.1978.720p.2xRus.Fr.mkv
Format : Matroska
Format version : Version 4 / Version 2
File size : 4.28 GiB
Duration : 1h 36mn
Overall bit rate : 6 321 Kbps
Encoded date : UTC 2016-01-31 14:20:19
Writing application : mkvmerge v7.9.0 ('Birds') 32bit
Writing library : libebml v1.3.1 + libmatroska v1.4.2
_STATISTICS_WRITING_APP : mkvmerge v7.9.0 ('Birds') 32bit
_STATISTICS_WRITING_DATE_UTC : 2016-01-31 14:20:19
_STATISTICS_TAGS : BPS DURATION NUMBER_OF_FRAMES NUMBER_OF_BYTES
DURATION : 01:36:56.960000000
NUMBER_OF_FRAMES : 181780
NUMBER_OF_BYTES : 139607040

Video
ID : 1
Format : AVC
Format/Info : Advanced Video Codec
Format profile : [email protected]
Format settings, CABAC : Yes
Format settings, ReFrames : 9 frames
Codec ID : V_MPEG4/ISO/AVC
Duration : 1h 36mn
Bit rate : 5 620 Kbps
Width : 1 200 pixels
Height : 720 pixels
Display aspect ratio : 1.667
Frame rate mode : Constant
Frame rate : 23.976 fps
Color space : YUV
Chroma subsampling : 4:2:0
Bit depth : 8 bits
Scan type : Progressive
Bits/(Pixel*Frame) : 0.271
Stream size : 3.81 GiB (89%)
Writing library : x264 core 146 r2538 121396c
Encoding settings : cabac=1 / ref=9 / deblock=1:-1:-1 / analyse=0x3:0x133 / me=umh / subme=10 / psy=1 / psy_rd=1.00:0.15 / mixed_ref=1 / me_range=28 / chroma_me=1 / trellis=2 / 8x8dct=1 / cqm=0 / deadzone=21,11 / fast_pskip=1 / chroma_qp_offset=-3 / threads=6 / lookahead_threads=1 / sliced_threads=0 / nr=0 / decimate=1 / interlaced=0 / bluray_compat=0 / constrained_intra=0 / bframes=3 / b_pyramid=2 / b_adapt=2 / b_bias=0 / direct=3 / weightb=1 / open_gop=0 / weightp=2 / keyint=96 / keyint_min=23 / scenecut=40 / intra_refresh=0 / rc_lookahead=60 / rc=crf / mbtree=1 / crf=18.5 / qcomp=0.60 / qpmin=0 / qpmax=69 / qpstep=4 / vbv_maxrate=20000 / vbv_bufsize=25000 / crf_max=0.0 / nal_hrd=none / filler=0 / ip_ratio=1.40 / aq=1:1.00
Default : Yes
Forced : No

Audio #1
ID : 2
Format : AC-3
Format/Info : Audio Coding 3
Mode extension : CM (complete main)
Format settings, Endianness : Big
Codec ID : A_AC3
Duration : 1h 36mn
Bit rate mode : Constant
Bit rate : 192 Kbps
Channel(s) : 2 channels
Channel positions : Front: L R
Sampling rate : 48.0 KHz
Bit depth : 16 bits
Compression mode : Lossy
Stream size : 133 MiB (3%)
Title : Rus-1
Language : Russian
Default : Yes
Forced : No

Audio #2
ID : 3
Format : AC-3
Format/Info : Audio Coding 3
Mode extension : CM (complete main)
Format settings, Endianness : Big
Codec ID : A_AC3
Duration : 1h 36mn
Bit rate mode : Constant
Bit rate : 192 Kbps
Channel(s) : 2 channels
Channel positions : Front: L R
Sampling rate : 48.0 KHz
Bit depth : 16 bits
Compression mode : Lossy
Stream size : 133 MiB (3%)
Title : Rus-2
Language : Russian
Default : No
Forced : No

Audio #3
ID : 5
Format : AC-3
Format/Info : Audio Coding 3
Mode extension : CM (complete main)
Format settings, Endianness : Big
Codec ID : A_AC3
Duration : 1h 36mn
Bit rate mode : Constant
Bit rate : 192 Kbps
Channel(s) : 1 channel
Channel positions : Front: C
Sampling rate : 48.0 KHz
Bit depth : 16 bits
Compression mode : Lossy
Stream size : 133 MiB (3%)
Title : Fr
Language : French
Default : No
Forced : No

Text
ID : 4
Format : UTF-8
Codec ID : S_TEXT/UTF8
Codec ID/Info : UTF-8 Plain Text
Language : English
Default : No
Forced : No


Внимание! AdBlock блокирует показ скриншотов, все вопросы к разработчикам )))
Трекер:  [ 02-Фев-2016 22:30 ]

  

Скачать .torrent

Размер .torrent файла 11 KB


Размер: 4.28 GB
Хэш (hash) релиза: 70aba95f067577e5d5b570fddfa2437dda8ba875
Подписка на обновления:

Торренты, похожие на Клетка для чудаков Клетка для безумцев скачать торрент

Форум Название Автор Размер S L Добавлен
Зарубежные фильмы до 2016 ·· Клетка для чудаков / Клетка для безумцев / La cage aux folles (Эдуар Молинаро / Edouard Molinaro) [1978, Франция, Италия, комедия, BDRemux 1080p] [Criterion Collection] 2x MVO + Sub Eng + Original Fre Galfimbul 2639277383124.58 GB 0 0 1482413083

16:24

22-Дек-16

Еще никто не оставлял запись к записи скачать торрент Клетка для чудаков Клетка для безумцев . Будь первым!

!Обратная связь