Скачать через торрент Бродяга со взморья Le vagabond de la Baie de Somme Фильм бесплатно в хорошем качестве torrent

Скачивайте на UnionPeer.org фильмы через торрент без регистрации. Новинки кино в хорошем качестве через торрент. На UnionPeer.org можно скачать через торрент фильмы 2014 и 2015 годов. Самые новые фильмы.

Скачать торрент Бродяга со взморья Le vagabond de la Baie de Somme бесплатно через .torrent фильм мультфильм сериал

Статистика раздачи
Размер:  2.47 GB   |    Зарегистрирован:  2 года 10 месяцев   |    .torrent скачан:  28 раз   |   
Раздают:  1  
   
загрузка...
 
Автор Сообщение

Galfimbul

avatar Galfimbul


Бродяга со взморья
Le vagabond de la Baie de Somme
Страна: Франция, Бельгия
Жанр: детектив, драма, экранизация
Год выпуска: 2015
Продолжительность: 01:37:06Перевод: Субтитры (русский перевод Е.Маньен, Éclair Media)
Cубтитры: русские, английские, французские, немецкие, нидерландские, румынские
Оригинальная аудиодорожка: французский

Режиссер: Клод-Мишель Ром / Claude-Michel Rome

В ролях: Жером Робар / Jérôme Robart (Paul Beaujour), Соня Роллан / Sonia Rolland (Aurore Debac), Франсуа Феролето / François Feroleto (Théobald-Druon Bernard), Шарлотта Кади / Charlotte Kady (Commandant Marion Vidal), Лионель Астье / Lionnel Astier (Jean-Hugues De Wan), Жеральд Ларош / Gérald Laroche (Procureur Cuvillier), Фредерик ван ден Дрише / Frédéric van den Driessche (Félicien Warlau)

Описание: По одноименному роману Лео Лапуанта / Léo Lapointe (2005).

В прибрежных дюнах было найдено тело бродяги. Он был убит пулей из охотничьего ружья выстрелом в спину. Что это: случайность или преднамеренное убийство? И почему на следствие оказывается давление с целью замять это дело?

Доп. информация: Hot Bird (13.0°E) TV5MONDE Europe DVB-S

Качество видео: DVB
Формат видео: TS

Видео: MPEG Video 2, 720x576@1024x576 (16:9), 25 fps, ~3270 kbps avg, 0.315 bit/pixel
Аудио: MPEG Audio 2, 2 ch, 48 kHz, 192 kbps - французский
Формат субтитров: PGS
ОбщееИдентификатор : 1 (0x1)Полное имя : F:\My Torrents 3\[apreder]Le_vagabond_de_la_Baie_de_Somme(2015)DVB.tsФормат : MPEG-TSРазмер файла : 2,47 ГбайтПродолжительность : 1 ч. 37 м.Режим общего битрейта : ПеременныйОбщий поток : 3644 Кбит/секМаксимальный общий битрейт : 35,5 Мбит/сек

ВидеоИдентификатор : 4113 (0x1011)Идентификатор меню : 1 (0x1)Формат : MPEG VideoВерсия формата : Version 2Профиль формата : Main@MainПараметр BVOP формата : ДаПараметр матрицы формата : ВыборочнаяПараметр GOP формата : VariableFormat_Settings_PictureStructure : FrameИдентификатор кодека : 2Продолжительность : 1 ч. 37 м.Вид битрейта : ПеременныйБитрейт : 3270 Кбит/секШирина : 720 пикселейВысота : 576 пикселейСоотношение сторон : 16:9Частота кадров : 25,000 кадров/секСтандарт вещания : PALЦветовое пространство : YUVСубдискретизация насыщенности : 4:2:0Битовая глубина : 8 битТип развёртки : ЧересстрочнаяПорядок развёртки : Верхнее поле первоеМетод сжатия : С потерямиБит/(Пиксели*Кадры) : 0.315Временной код первого кадра : 00:00:00:00Оригинал временного кода : Group of pictures headerРазмер потока : 2,22 Гбайт (90%)

АудиоИдентификатор : 4352 (0x1100)Идентификатор меню : 1 (0x1)Формат : MPEG AudioВерсия формата : Version 1Профиль формата : Layer 2Режим : Joint stereoРасширение режима : Intensity Stereo + MS StereoИдентификатор кодека : 4Продолжительность : 1 ч. 37 м.Вид битрейта : ПостоянныйБитрейт : 192 Кбит/секКаналы : 2 каналаЧастота : 48,0 КГцМетод сжатия : С потерямиРазмер потока : 133 Мбайт (5%)Язык : French

Текст #1Идентификатор : 4608 (0x1200)Идентификатор меню : 1 (0x1)Формат : PGSИдентификатор кодека : 144Язык : Russian

Текст #2Идентификатор : 4609 (0x1201)Идентификатор меню : 1 (0x1)Формат : PGSИдентификатор кодека : 144Язык : English

Текст #3Идентификатор : 4610 (0x1202)Идентификатор меню : 1 (0x1)Формат : PGSИдентификатор кодека : 144Язык : French

Текст #4Идентификатор : 4611 (0x1203)Идентификатор меню : 1 (0x1)Формат : PGSИдентификатор кодека : 144Язык : German

Текст #5Идентификатор : 4612 (0x1204)Идентификатор меню : 1 (0x1)Формат : PGSИдентификатор кодека : 144Язык : Dutch

Текст #6Идентификатор : 4613 (0x1205)Идентификатор меню : 1 (0x1)Формат : PGSИдентификатор кодека : 144Язык : Romanian

[2'894]

Трекер:  [ 06-Фев-2016 18:00 ]

  

Скачать .torrent

Размер .torrent файла 13 KB


Размер: 2.47 GB
Хэш (hash) релиза: 64baf5799f881ae57170de5a2ac68c7f8de3bf11
Подписка на обновления:

Еще никто не оставлял запись к записи скачать торрент Бродяга со взморья Le vagabond de la Baie de Somme . Будь первым!

!Обратная связь