Скачать через торрент Проект 12: Бункер Project 12: The Bunker Фильм бесплатно в хорошем качестве torrent

Скачивайте на UnionPeer.org фильмы через торрент без регистрации. Новинки кино в хорошем качестве через торрент. На UnionPeer.org можно скачать через торрент фильмы 2014 и 2015 годов. Самые новые фильмы.

Скачать торрент Проект 12: Бункер Project 12: The Bunker бесплатно через .torrent фильм мультфильм сериал

Статистика раздачи
Размер:  1.36 GB   |    Зарегистрирован:  2 года 8 месяцев   |    .torrent скачан:  800 раз   |   
Раздают:  1  
   
загрузка...
 
Автор Сообщение

Galfimbul

avatar Galfimbul


Проект 12: Бункер / Project 12: The Bunker

Страна: Испания
Жанр: фантастика, боевик, триллер, приключения
Год выпуска: 2016
Продолжительность: 01:37:08

Перевод: Одноголосый закадровый Васька Куролесов по субтитрам Энигма
Cубтитры: нет
Оригинальная аудиодорожка: нет

Режиссер: Джейми Фалеро / Jaime Falero

В ролях: Джеймс Космо, Хоакин Санчез, Наташа Алам, Эрик Робертс, Тимоти Гиббс, Тони Корвильо, Джеймс Коннер Фергюсон, Хосе Луис Де Мадарьяга

Описание: В начале семидесятых годов в самый разгар Холодной войны Советский Союз вёл инновационные разработки разрушительного оружия, способного в один миг прекратить войну и изменить ход человеческой истории. Для работ над Проектом 12 были привлечены лучшие умы Союза, трудившиеся сутки напролёт над непобедимой машиной - армией солдат с невероятными способностями, которых не берут ни пули, ни время. В итоге руководство сочло Проект 12 слишком опасным и закрыло его, приказав убить всех участвовавших в разработке учёных, чтобы сохранить секрет от мира. Троим удалось сбежать из под огня и скрыться, а Проект 12 был захоронен в особо охраняемом подземном бункере, заброшенном в пустыне много лет назад.

Семпл

Качество видео: DVDRip
Формат видео: AVI

Видео: XviD, 1806 Кбит/с, 720x304, 23.976 fps
Аудио: AC-3, 2 ch, 192 Кбит/с, 48.0 KHz
General
Complete name : G:\Project 12 The Bunker_KypoJIecoB.avi
Format : AVI
Format/Info : Audio Video Interleave
File size : 1.36 GiB
Duration : 1h 37mn
Overall bit rate : 2 007 Kbps

Video
ID : 0
Format : MPEG-4 Visual
Format profile : Advanced Simple@L5
Format settings, BVOP : 2
Format settings, QPel : No
Format settings, GMC : No warppoints
Format settings, Matrix : Default (H.263)
Codec ID : XVID
Codec ID/Hint : XviD
Duration : 1h 37mn
Bit rate : 1 806 Kbps
Width : 720 pixels
Height : 304 pixels
Display aspect ratio : 2.35:1
Frame rate : 23.976 fps
Color space : YUV
Chroma subsampling : 4:2:0
Bit depth : 8 bits
Scan type : Progressive
Compression mode : Lossy
Bits/(Pixel*Frame) : 0.344
Stream size : 1.23 GiB (90%)
Writing library : XviD 67

Audio
ID : 1
Format : AC-3
Format/Info : Audio Coding 3
Mode extension : CM (complete main)
Format settings, Endianness : Big
Codec ID : 2000
Duration : 1h 37mn
Bit rate mode : Constant
Bit rate : 192 Kbps
Channel(s) : 2 channels
Channel positions : Front: L R
Sampling rate : 48.0 KHz
Compression mode : Lossy
Stream size : 133 MiB (10%)
Alignment : Split accross interleaves
Interleave, duration : 42 ms (1.00 video frame)
Interleave, preload duratio : 500 ms


Трекер:  [ 07-Фев-2016 09:00 ]

  

Скачать .torrent

Размер .torrent файла 55 KB


Размер: 1.36 GB
Хэш (hash) релиза: 8e572f09cd476fe0fac3b10b5e863d95e3ee6f1c
Подписка на обновления:

Еще никто не оставлял запись к записи скачать торрент Проект 12: Бункер Project 12: The Bunker . Будь первым!

!Обратная связь