Скачать через торрент Хуже, чем ложь Misconduct Фильм бесплатно в хорошем качестве torrent

Скачивайте на UnionPeer.org фильмы через торрент без регистрации. Новинки кино в хорошем качестве через торрент. На UnionPeer.org можно скачать через торрент фильмы 2014 и 2015 годов. Самые новые фильмы.

Скачать торрент Хуже, чем ложь Misconduct бесплатно через .torrent фильм мультфильм сериал

Статистика раздачи
Размер:  1.47 GB   |    Зарегистрирован:  2 года 8 месяцев   |    .torrent скачан:  580 раз   |   
Раздают:  1  
   
загрузка...
 
Автор Сообщение

Galfimbul

avatar Galfimbul


Хуже, чем ложь

Misconduct
Год выпуска: 2016
Страна: США
Жанр: Триллер, Драма
Продолжительность: 01:45:52
Перевод: Любительский (двухголосый закадровый) [den904 & DeadSno]
Субтитры: нет
Оригинальная аудиодорожка: нет
Режиссер: Шинтаро Шимосава / Shintaro Shimosawa
В ролях: Джош Дюамель, Аль Пачино, Энтони Хопкинс, Элис Ив, Малин Акерман, Джулия Стайлз, Глен Пауэлл, Ли Бён Хон, Крис Маркетт, Шона Гастян
Описание: Когда амбициозный молодой юрист берется за большое дело против влиятельного и безжалостного исполнительного директора крупной фармацевтической компании, он оказывается втянут в мир шантажа и коррупции.

Семпл: http://multi-up.com/1088041
Качество видео: WEB-DLRip (исходник WEB-DL 720p)
Формат видео: AVI

Видео: 720x304 (2.37:1), 23.976 fps, XviD build 73 ~1846 kbps avg, 0.35 bit/pixel
Аудио: 48 kHz, AC3 Dolby Digital, 2/0 (L,R) ch, ~128 kbps
General
Complete name : Misconduct.2016.L2.WEB-DLRip.avi
Format : AVI
Format/Info : Audio Video Interleave
File size : 1.47 GiB
Duration : 1h 45mn
Overall bit rate : 1 984 Kbps
Writing application : VirtualDubMod 1.5.10.3 | www.virtualdub-fr.org || (build 2550/release)
Writing library : VirtualDubMod build 2550/release

Video
ID : 0
Format : MPEG-4 Visual
Format profile : Advanced Simple@L5
Format settings, BVOP : 1
Format settings, QPel : No
Format settings, GMC : No warppoints
Format settings, Matrix : Custom
Codec ID : XVID
Codec ID/Hint : XviD
Duration : 1h 45mn
Bit rate : 1 846 Kbps
Width : 720 pixels
Height : 304 pixels
Display aspect ratio : 2.35:1
Frame rate : 23.976 (23976/1000) fps
Color space : YUV
Chroma subsampling : 4:2:0
Bit depth : 8 bits
Scan type : Progressive
Compression mode : Lossy
Bits/(Pixel*Frame) : 0.352
Stream size : 1.37 GiB (93%)
Writing library : XviD 73

Audio
ID : 1
Format : AC-3
Format/Info : Audio Coding 3
Mode extension : CM (complete main)
Format settings, Endianness : Big
Codec ID : 2000
Duration : 1h 45mn
Bit rate mode : Constant
Bit rate : 128 Kbps
Channel(s) : 2 channels
Channel positions : Front: L R
Sampling rate : 48.0 KHz
Frame rate : 31.250 fps (1536 spf)
Compression mode : Lossy
Stream size : 96.9 MiB (6%)
Alignment : Split accross interleaves
Interleave, duration : 42 ms (1.00 video frame)
Interleave, preload duratio : 500 ms


Трекер:  [ 07-Фев-2016 19:00 ]

  

Скачать .torrent

Размер .torrent файла 15 KB


Размер: 1.47 GB
Хэш (hash) релиза: ff3b775d81187ab5e4d954f03e4a0f6f4473fc63
Подписка на обновления:

Торренты, похожие на Хуже, чем ложь Misconduct скачать торрент

Форум Название Автор Размер S L Добавлен
Зарубежные фильмы до 2016 ·· Хуже, чем ложь / Misconduct (Синтаро Симосава / Shintaro Shimosawa) [2016, США, Триллер, драма, криминал, детектив, DVD5] R5 Dub Galfimbul 45145313284.2 GB 0 0 1525806130

22:02

8-Май-18

Зарубежные фильмы 2016-2018 (Новинки зарубежного кино) ·· Хуже, чем ложь / Misconduct (Шинтаро Шимосава / Shintaro Shimosawa) [2016, США, Триллер, драма, BDRip] Dub (iTunes) Galfimbul 15200958841.42 GB 0 0 1481912186

21:16

16-Дек-16

Зарубежные фильмы 2016-2018 (Новинки зарубежного кино) ·· Хуже, чем ложь / Misconduct (Шинтаро Шимосава / Shintaro Shimosawa) [2016, США, Триллер, драма, HDRip] Dub (iTunes) Galfimbul 783368192747 MB 0 0 1481909859

20:37

16-Дек-16

Зарубежные фильмы 2016-2018 (Новинки зарубежного кино) ·· Хуже, чем ложь / Misconduct (Шинтаро Шимосава / Shintaro Shimosawa) [2016, США, Триллер, Драма, BDRip 1080p] iTunes Galfimbul 99192050589.24 GB 0 0 1481746253

23:10

14-Дек-16

Зарубежные фильмы 2016-2018 (Новинки зарубежного кино) ·· Хуже, чем ложь / Misconduct (Шинтаро Шимосава / Shintaro Shimosawa) [2016, США, Триллер, Драма, BDRip 720p] iTunes Galfimbul 70174944556.54 GB 0 0 1481746250

23:10

14-Дек-16

Зарубежные фильмы 2016-2018 (Новинки зарубежного кино) ·· Хуже, чем ложь / Misconduct (Шинтаро Шимосава / Shintaro Shimosawa) [2016, США, Триллер, Драма, HDRip] DVO + Original Galfimbul 15314206721.43 GB 0 0 1460969198

11:46

18-Апр-16

Зарубежные фильмы 2016-2018 (Новинки зарубежного кино) ·· Хуже, чем ложь / Misconduct (Шинтаро Шимосава / Shintaro Shimosawa) [2016, США, триллер, драма, BDRip 1080p] Galfimbul 99277311789.25 GB 0 0 1460569464

20:44

13-Апр-16

Зарубежные фильмы до 2016 ·· Хуже, чем ложь / Misconduct (Шинтаро Шимосава / Shintaro Shimosawa) [2016, США, триллер, драма, WEB-DL 720p] DVO (den904 & DeadSno) + Sub Eng + Original Eng Galfimbul 36349814413.39 GB 0 0 1455090884

10:54

10-Фев-16

Зарубежные фильмы 2016-2018 (Новинки зарубежного кино) ·· Хуже, чем ложь / Misconduct (Шинтаро Шимосава / Shintaro Shimosawa) [2016, США, Триллер, драма, WEB-DLRip] DVO (den904 & DeadSno) Galfimbul 784207872748 MB 0 0 1454874768

22:52

7-Фев-16

Еще никто не оставлял запись к записи скачать торрент Хуже, чем ложь Misconduct . Будь первым!

!Обратная связь