1 Laffaire SK1 torrent

UnionPeer.org . . UnionPeer.org 2014 2015 . .

1 Laffaire SK1 .torrent

6.82 GB   |    :  8 3    |    .torrent :  36    |   
1  
   
 

Galfimbul

avatar Galfimbul


1 / L'affaire SK1
:
: ,
: 2014
: 02:00:17

:
C: , , ,
:

: / Frédéric Tellier
: , , , , , , ͸, , ,

:
. 1991 . , , , 36 . , , . , . : , 8 , , , .
||

<div class="post-box" style="border-color: #161C1E; background: #161C1E;">

<div style="margin-left: 2em" class="post-ul"> </div>
<div style="margin-left: 2em" class="post-ul">2O16 </div>
</div>
: BDRip 720p ( HDS)
: MKV

: AVC (x264), 1280x534 (2.40:1) at 24,000 fps, 6600 bps
1: DTS; 1536 Kbps; CBR; 6 ch; 48 khz | |
: softsub (SRT)
General
Unique ID : 252064576312487161533288173115198943304 (0xBDA1DF1D811A85239F15410072143048)
Complete name : 1.2014.RUSSUB.720p.BluRay.x264-HDS.mkv
Format : Matroska
Format version : Version 4 / Version 2
File size : 6.82 GiB
Duration : 2h 0mn
Overall bit rate : 8 121 Kbps
Movie name : L'affaire SK1 [2014] [720p] RUSSUB
Encoded date : UTC 2016-02-11 11:15:09
Writing application : mkvmerge v7.8.0 ('River Man') 32bit built on Mar 27 2015 16:18:02
Writing library : libebml v1.3.1 + libmatroska v1.4.2

Video
ID : 1
Format : AVC
Format/Info : Advanced Video Codec
Format profile : [email protected]
Format settings, CABAC : Yes
Format settings, ReFrames : 9 frames
Codec ID : V_MPEG4/ISO/AVC
Duration : 2h 0mn
Bit rate : 6 600 Kbps
Width : 1 280 pixels
Height : 534 pixels
Display aspect ratio : 2.40:1
Frame rate mode : Constant
Frame rate : 24.000 fps
Color space : YUV
Chroma subsampling : 4:2:0
Bit depth : 8 bits
Scan type : Progressive
Bits/(Pixel*Frame) : 0.402
Stream size : 5.42 GiB (79%)
Title : profile.php?mode=viewprofile&u=22488948
Writing library : x264 core 142 r2431 ac76440
Encoding settings : cabac=1 / ref=9 / deblock=1:-3:-3 / analyse=0x3:0x113 / me=umh / subme=11 / psy=1 / psy_rd=1.00:0.05 / mixed_ref=1 / me_range=32 / chroma_me=1 / trellis=2 / 8x8dct=1 / cqm=0 / deadzone=21,11 / fast_pskip=0 / chroma_qp_offset=-2 / threads=8 / lookahead_threads=1 / sliced_threads=0 / nr=0 / decimate=1 / interlaced=0 / bluray_compat=0 / constrained_intra=0 / bframes=5 / b_pyramid=2 / b_adapt=2 / b_bias=0 / direct=3 / weightb=1 / open_gop=0 / weightp=2 / keyint=250 / keyint_min=24 / scenecut=40 / intra_refresh=0 / rc=2pass / mbtree=0 / bitrate=6600 / ratetol=1.0 / qcomp=0.70 / qpmin=0 / qpmax=69 / qpstep=4 / cplxblur=20.0 / qblur=0.5 / ip_ratio=1.40 / pb_ratio=1.30 / aq=2:0.90
Language : English
Default : Yes
Forced : No

Audio
ID : 2
Format : DTS
Format/Info : Digital Theater Systems
Mode : 16
Format settings, Endianness : Big
Codec ID : A_DTS
Duration : 2h 0mn
Bit rate mode : Constant
Bit rate : 1 509 Kbps
Channel(s) : 6 channels
Channel positions : Front: L C R, Side: L R, LFE
Sampling rate : 48.0 KHz
Bit depth : 24 bits
Compression mode : Lossy
Stream size : 1.27 GiB (19%)
Language : French
Default : Yes
Forced : No

Text #1
ID : 3
Format : UTF-8
Codec ID : S_TEXT/UTF8
Codec ID/Info : UTF-8 Plain Text
Language : Russian
Default : Yes
Forced : No

Text #2
ID : 4
Format : UTF-8
Codec ID : S_TEXT/UTF8
Codec ID/Info : UTF-8 Plain Text
Language : English
Default : No
Forced : No

Text #3
ID : 5
Format : PGS
Muxing mode : zlib
Codec ID : S_HDMV/PGS
Codec ID/Info : The same subtitle format used on BDs/HD-DVDs
Title : bluray
Language : French
Default : No
Forced : No

Text #4
ID : 6
Format : UTF-8
Codec ID : S_TEXT/UTF8
Codec ID/Info : UTF-8 Plain Text
Title : web
Language : French
Default : No
Forced : No

Text #5
ID : 7
Format : UTF-8
Codec ID : S_TEXT/UTF8
Codec ID/Info : UTF-8 Plain Text
Language : German
Default : No
Forced : No


! AdBlock , )))

 ·  , , FAQ-
:  [ 14--2016 18:00 ]

  

.torrent

.torrent 17 KB


: 6.82 GB
(hash) : 99fe4330a326754f005442f1a878dec156817dff
:
··
...

1 Laffaire SK1 . !

!