Скачать через торрент Тёмная паутина Darkweb Фильм бесплатно в хорошем качестве torrent

Скачивайте на UnionPeer.org фильмы через торрент без регистрации. Новинки кино в хорошем качестве через торрент. На UnionPeer.org можно скачать через торрент фильмы 2014 и 2015 годов. Самые новые фильмы.

Скачать торрент Тёмная паутина Darkweb бесплатно через .torrent фильм мультфильм сериал

Статистика раздачи
Размер:  1.39 GB   |    Зарегистрирован:  2 года 8 месяцев   |    .torrent скачан:  651 раз   |   
Раздают:  1  
   
загрузка...
 
Автор Сообщение

Galfimbul

avatar Galfimbul


Тёмная паутина / Darkweb

Страна: Франция
Жанр: боевик, триллер
Год выпуска: 2016
Продолжительность: 01:29:39

Перевод: Одноголосый закадровый Васька Куролесов по субтитрам Enigma
Cубтитры: нет
Оригинальная аудиодорожка: нет

Режиссер: Бруно Вассенат / Bruno Vaussenat

В ролях: Оливье Грюнер, Дэнни Гловер, Тони Харрисон, Ибрахима Кейта, Винсент Паризи, Тристан Робин и др.

Описание: Оказывается кроме хорошо знакомого нам интернета существует огромная паутина, где вертятся огромные деньги и идет своя жизнь. Слышали ли вы о Тёмной паутине? Это сетевые сегменты, вообще не подключённые к сети Интернет... Таинственные люди создали садистскую группу, похищая молодых девушек для участия в охоте на индюшек в качестве добычи, при этом они снимают всё на видео. Миллионеры, жаждущие крови, должны купить право на просмотр в темной паутине. Каков же исход охоты?

Сэмпл: http://multi-up.com/1089553

Качество видео: HDRip
Формат видео: AVI

Видео: XviD, 1830 Кбит/с, 720x304, 24.000 fps
Аудио: AC-3, 6 ch, 384 Кбит/с, 48.0 KHz

Релиз:
General
Complete name : G:\Darkweb.2016.HDRip_KypoJIecoB.avi
Format : AVI
Format/Info : Audio Video Interleave
File size : 1.39 GiB
Duration : 1h 29mn
Overall bit rate : 2 223 Kbps

Video
ID : 0
Format : MPEG-4 Visual
Format profile : Advanced Simple@L5
Format settings, BVOP : 2
Format settings, QPel : No
Format settings, GMC : No warppoints
Format settings, Matrix : Default (H.263)
Codec ID : XVID
Codec ID/Hint : XviD
Duration : 1h 29mn
Bit rate : 1 830 Kbps
Width : 720 pixels
Height : 304 pixels
Display aspect ratio : 2.35:1
Frame rate : 24.000 fps
Color space : YUV
Chroma subsampling : 4:2:0
Bit depth : 8 bits
Scan type : Progressive
Compression mode : Lossy
Bits/(Pixel*Frame) : 0.348
Stream size : 1.15 GiB (82%)
Writing library : XviD 66

Audio
ID : 1
Format : AC-3
Format/Info : Audio Coding 3
Mode extension : CM (complete main)
Format settings, Endianness : Big
Codec ID : 2000
Duration : 1h 29mn
Bit rate mode : Constant
Bit rate : 384 Kbps
Channel(s) : 6 channels
Channel positions : Front: L C R, Side: L R, LFE
Sampling rate : 48.0 KHz
Compression mode : Lossy
Stream size : 246 MiB (17%)
Alignment : Split accross interleaves
Interleave, duration : 42 ms (1.00 video frame)
Interleave, preload duratio : 500 ms


Трекер:  [ 18-Фев-2016 21:00 ]

  

Скачать .torrent

Размер .torrent файла 56 KB


Размер: 1.39 GB
Хэш (hash) релиза: d21da68093cdf6a983451ced6565af3919dc1572
Подписка на обновления:

Еще никто не оставлял запись к записи скачать торрент Тёмная паутина Darkweb . Будь первым!

!Обратная связь