Скачать через торрент Морпехи 3: В осаде Jarhead 3: The Siege Фильм бесплатно в хорошем качестве torrent

Скачивайте на UnionPeer.org фильмы через торрент без регистрации. Новинки кино в хорошем качестве через торрент. На UnionPeer.org можно скачать через торрент фильмы 2014 и 2015 годов. Самые новые фильмы.

Скачать торрент Морпехи 3: В осаде Jarhead 3: The Siege бесплатно через .torrent фильм мультфильм сериал

Статистика раздачи
Размер:  746 MB   |    Зарегистрирован:  2 года 7 месяцев   |    .torrent скачан:  50 раз   |   
Раздают:  1  
   
загрузка...
 
Автор Сообщение

Galfimbul

avatar Galfimbul



Морпехи 3: В осаде / Jarhead 3: The Siege

Страна: США
Жанр: Боевик, Военный
Год выпуска: 2016
Продолжительность: 01:28:59
Перевод: Профессиональный (дублированный)
Cубтитры: нет
Оригинальная аудиодорожка: нет
Режиссер: Уильям Кауфман / William Kaufman
В ролях: Скотт Эдкинс, Чарли Вебер, Том Эйнсли, Эрик Валдез, Данте Баско, Саша Джексон, Деннис Хейсбёрт, Стефен Хоган, Джо Корригалл, Адриан Ховард
Описание: Отряду морских пехотинцев, чья миссия — защита посольства США в одной из ближневосточных стран, приходится отражать внезапную атаку противника.

Качество видео: HDRip
Формат видео: AVI
Видео: XviD, 672x288 (2.35:1), 23,976 fps, ~1000 kbps avg, 0.22 bit/pixel
Аудио: 48 kHz, MP3, 2/0 (L,R) ch, ~128 kbps avg
Complete name : C:\Users\1\Desktop\РАЗДАЧИ\Jarhead 3 The Siege (2015) HDRip.avi
Format : AVI
Format/Info : Audio Video Interleave
File size : 746 MiB
Duration : 1h 28mn
Overall bit rate : 1 171 Kbps
Writing application : VirtualDubMod 1.5.10.3 | www.virtualdub-fr.org || (build 2550/release)
Writing library : VirtualDub build 35491/release

Video
ID : 0
Format : MPEG-4 Visual
Format profile : Advanced Simple@L5
Format settings, BVOP : 1
Format settings, QPel : No
Format settings, GMC : No warppoints
Format settings, Matrix : Custom
Codec ID : XVID
Codec ID/Hint : XviD
Duration : 1h 28mn
Bit rate : 1 034 Kbps
Width : 672 pixels
Height : 288 pixels
Display aspect ratio : 2.35:1
Frame rate : 23.976 (23976/1000) fps
Color space : YUV
Chroma subsampling : 4:2:0
Bit depth : 8 bits
Scan type : Progressive
Compression mode : Lossy
Bits/(Pixel*Frame) : 0.223
Stream size : 658 MiB (88%)
Writing library : XviD 73

Audio
ID : 1
Format : MPEG Audio
Format version : Version 1
Format profile : Layer 3
Codec ID : 55
Codec ID/Hint : MP3
Duration : 1h 28mn
Bit rate mode : Constant
Bit rate : 128 Kbps
Channel(s) : 2 channels
Sampling rate : 48.0 KHz
Compression mode : Lossy
Stream size : 81.5 MiB (11%)
Alignment : Aligned on interleaves
Interleave, duration : 42 ms (1.00 video frame)
Interleave, preload duratio : 504 ms
Writing library : LAME3.99r
Encoding settings : -m s -V 4 -q 2 -lowpass 17 -b 128


Трекер:  [ 20-Фев-2016 21:30 ]

  

Скачать .torrent

Размер .torrent файла 15 KB


Размер: 746 MB
Хэш (hash) релиза: 5554a92ed706439b12f0af543acf6d24ed99fe54
Подписка на обновления:

Торренты, похожие на Морпехи 3: В осаде Jarhead 3: The Siege скачать торрент

Форум Название Автор Размер S L Добавлен
Зарубежные фильмы 2016-2018 (Новинки зарубежного кино) ·· Морпехи 3: В осаде / Jarhead 3: The Siege (Уильям Кауфман / William Kaufman) [2016, США, боевик, военный, HDRip] Dub Galfimbul 15579054081.45 GB 0 0 1461670048

14:27

26-Апр-16

Зарубежные фильмы 2016-2018 (Новинки зарубежного кино) ·· Морпехи 3: В осаде / Jarhead 3: The Siege (Уильям Кауфман / William Kaufman) [2016, США, боевик, военный, HDRip] Dub + Original Eng Galfimbul 14677422081.37 GB 0 0 1455997381

22:43

20-Фев-16

Зарубежные фильмы 2016-2018 (Новинки зарубежного кино) ·· Морпехи 3: В осаде / Jarhead 3: The Siege (Уильям Кауфман / William Kaufman) [2016, США, Боевик, военный, BDRip-AVC] Dub + Sub Rus, Eng + Original Eng Galfimbul 28129166252.62 GB 0 0 1455997283

22:41

20-Фев-16

Зарубежные фильмы до 2016 ·· Морпехи 3: В осаде / Jarhead 3: The Siege (Уильям Кауфман / William Kaufman) [2016, США, боевик, военный, Blu-ray disc 1080p] [CEE] Dub + Sub Rus, Eng + Original Eng Galfimbul 3297880073430.71 GB 0 0 1455091092

10:58

10-Фев-16

Зарубежные фильмы до 2016 ·· Морпехи 3: В осаде / Jarhead 3: The Siege (Уильям Кауфман / William Kaufman) [2016, США, боевик, военный, BDRip 720p] Dub + Sub Rus, Eng + Original Eng Galfimbul 55851569455.2 GB 0 0 1454860325

18:52

7-Фев-16

Зарубежные фильмы до 2016 ·· Морпехи 3: В осаде / Jarhead 3: The Siege (Уильям Кауфман / William Kaufman) [2016, США, боевик, военный, BDRip 1080p] Dub + Sub Rus, Eng + Original Eng Galfimbul 1142483034510.64 GB 0 0 1454860303

18:51

7-Фев-16

Еще никто не оставлял запись к записи скачать торрент Морпехи 3: В осаде Jarhead 3: The Siege . Будь первым!

!Обратная связь