Скачать через торрент Морпехи 3: В осаде Jarhead 3: The Siege Фильм бесплатно в хорошем качестве torrent

Скачивайте на UnionPeer.org фильмы через торрент без регистрации. Новинки кино в хорошем качестве через торрент. На UnionPeer.org можно скачать через торрент фильмы 2014 и 2015 годов. Самые новые фильмы.

Скачать торрент Морпехи 3: В осаде Jarhead 3: The Siege бесплатно через .torrent фильм мультфильм сериал

Статистика раздачи
Размер:  1.37 GB   |    Зарегистрирован:  2 года 7 месяцев   |    .torrent скачан:  91 раз   |   
Раздают:  1  
   
загрузка...
 
Автор Сообщение

Galfimbul

avatar Galfimbul


Морпехи 3: В осаде / Jarhead 3: The Siege

Страна: США
Жанр: боевик, военный
Год выпуска: 2016
Продолжительность: 01:28:59

Перевод: Профессиональный (дублированный) [лицензия]
Cубтитры: нет
Оригинальная аудиодорожка: английский

Режиссер: Уильям Кауфман / William Kaufman

В ролях: Скотт Эдкинс, Чарли Вебер, Том Эйнсли, Эрик Валдез, Данте Баско, Саша Джексон, Деннис Хейсбёрт, Стефен Хоган, Джо Корригалл, Адриан Ховард

Описание: Отряду морских пехотинцев, чья миссия — защита посольства США в одной из ближневосточных стран, приходится отражать внезапную атаку противника.



Качество видео: HDRip
Формат видео: AVI

Видео: Xvid, 720x304, 2,35:1, 23,976 fps, ~1742 kb/s
Аудио: AC3, 48 kHz, 6 ch, 448 kb/s
Общее
Полное имя : Morpeh.3.2016.D.HDRip.1400MB..avi
Формат : AVI
Формат/Информация : Audio Video Interleave
Размер файла : 1,37 Гбайт
Продолжительность : 1 ч. 28 м.
Общий поток : 2199 Кбит/сек
Программа кодирования : VirtualDubMod 1.5.10.2 (build 2540/release)
Библиотека кодирования : VirtualDubMod build 2540/release

Видео
Идентификатор : 0
Формат : MPEG-4 Visual
Профиль формата : Advanced Simple@L5
Параметр BVOP формата : 2
Параметр QPel формата : Нет
Параметр GMC формата : Без точки перехода
Параметр матрицы формата : Default (MPEG)
Идентификатор кодека : XVID
Идентификатор кодека/Подсказка : XviD
Продолжительность : 1 ч. 28 м.
Битрейт : 1742 Кбит/сек
Ширина : 720 пикселей
Высота : 304 пикселя
Соотношение сторон : 2,35:1
Частота кадров : 23,976 (24000/1001) кадра/сек
Цветовое пространство : YUV
Субдискретизация насыщенности : 4:2:0
Битовая глубина : 8 бит
Тип развёртки : Прогрессивная
Метод сжатия : С потерями
Бит/(Пиксели*Кадры) : 0.332
Размер потока : 1,08 Гбайт (79%)
Библиотека кодирования : XviD 1.2.1 (UTC 2008-12-04)

Аудио
Идентификатор : 1
Формат : AC-3
Формат/Информация : Audio Coding 3
Расширение режима : CM (complete main)
Параметр Endianness формата : Big
Идентификатор кодека : 2000
Продолжительность : 1 ч. 28 м.
Вид битрейта : Постоянный
Битрейт : 448 Кбит/сек
Каналы : 6 каналов
Расположение каналов : Front: L C R, Side: L R, LFE
Частота : 48,0 КГц
Частота кадров : 31,250 кадров/сек (1536 spf)
Метод сжатия : С потерями
Размер потока : 285 Мбайт (20%)
Выравнивание : Разделение по промежуткам
Продолжительность промежутка : 42 мс. (1,00 видеокадр)
Время предзагрузки промежутка : 500 мс.


Трекер:  [ 20-Фев-2016 21:30 ]

  

Скачать .torrent

Размер .torrent файла 14 KB


Размер: 1.37 GB
Хэш (hash) релиза: 193cd5f30b8c42a8b2f633779f0a77f97f16952a
Подписка на обновления:

Торренты, похожие на Морпехи 3: В осаде Jarhead 3: The Siege скачать торрент

Форум Название Автор Размер S L Добавлен
Зарубежные фильмы 2016-2018 (Новинки зарубежного кино) ·· Морпехи 3: В осаде / Jarhead 3: The Siege (Уильям Кауфман / William Kaufman) [2016, США, боевик, военный, HDRip] Dub Galfimbul 15579054081.45 GB 0 0 1461670048

14:27

26-Апр-16

Зарубежные фильмы 2016-2018 (Новинки зарубежного кино) ·· Морпехи 3: В осаде / Jarhead 3: The Siege (Уильям Кауфман / William Kaufman) [2016, США, Боевик, Военный, HDRip] Dub Galfimbul 781790878746 MB 0 0 1455997332

22:42

20-Фев-16

Зарубежные фильмы 2016-2018 (Новинки зарубежного кино) ·· Морпехи 3: В осаде / Jarhead 3: The Siege (Уильям Кауфман / William Kaufman) [2016, США, Боевик, военный, BDRip-AVC] Dub + Sub Rus, Eng + Original Eng Galfimbul 28129166252.62 GB 0 0 1455997283

22:41

20-Фев-16

Зарубежные фильмы до 2016 ·· Морпехи 3: В осаде / Jarhead 3: The Siege (Уильям Кауфман / William Kaufman) [2016, США, боевик, военный, Blu-ray disc 1080p] [CEE] Dub + Sub Rus, Eng + Original Eng Galfimbul 3297880073430.71 GB 0 0 1455091092

10:58

10-Фев-16

Зарубежные фильмы до 2016 ·· Морпехи 3: В осаде / Jarhead 3: The Siege (Уильям Кауфман / William Kaufman) [2016, США, боевик, военный, BDRip 720p] Dub + Sub Rus, Eng + Original Eng Galfimbul 55851569455.2 GB 0 0 1454860325

18:52

7-Фев-16

Зарубежные фильмы до 2016 ·· Морпехи 3: В осаде / Jarhead 3: The Siege (Уильям Кауфман / William Kaufman) [2016, США, боевик, военный, BDRip 1080p] Dub + Sub Rus, Eng + Original Eng Galfimbul 1142483034510.64 GB 0 0 1454860303

18:51

7-Фев-16

Еще никто не оставлял запись к записи скачать торрент Морпехи 3: В осаде Jarhead 3: The Siege . Будь первым!

!Обратная связь