Скачать через торрент Пятьдесят оттенков черного Fifty Shades of Black Фильм бесплатно в хорошем качестве torrent

Скачивайте на UnionPeer.org фильмы через торрент без регистрации. Новинки кино в хорошем качестве через торрент. На UnionPeer.org можно скачать через торрент фильмы 2014 и 2015 годов. Самые новые фильмы.

Скачать торрент Пятьдесят оттенков черного Fifty Shades of Black бесплатно через .torrent фильм мультфильм сериал

Статистика раздачи
Размер:  1.37 GB   |    Зарегистрирован:  2 года 7 месяцев   |    .torrent скачан:  644 раза   |   
Раздают:  1  
   
загрузка...
 
Автор Сообщение

Galfimbul

avatar Galfimbul




Пятьдесят оттенков черного / Fifty Shades of Black
«Если ты вляпался в черное, никогда не отмоешься до серого»
Год выпуска: 2016
Страна: США
Жанр: комедия, ...
Продолжительность: 01:24:45
Перевод: Профессиональный (полное дублирование) [Чистый звук]
Субтитры: Отсутствуют
Дополнительно: Присутствуют вставки голосовой и текстовой рекламы
Режиссер: Майкл Тиддес
В ролях: Марлон Уайанс, Кали Хоук, Фред Уиллард, Майк Эппс, Эффион Крокетт, Джейн Сеймур, Флоренс Хендерсон, Эндрю Бэчелор, Дженни Зигрино, Кейт Лэнг Джонсон
О фильме:
Неискушенная студентка колледжа знакомится с состоятельным бизнесменом, чьи сексуальные предпочтения омрачают их отношения.
Сценарий: Марлон Уайанс, Рик Альварес
Продюсер: Рик Альварес, Марлон Уайанс, Пэдди Каллен, ...
Бюджет: $ 5 500 000
Премьера (мир): 28 января 2016
Премьера (РФ): 4 февраля 2016, «Парадиз»

Формат: AVI
Качество: WEBRip
Видео кодек: XviD
Аудио кодек: AC3
Видео: 720x320, 1920 kbps, 25.000 fps
Аудио: AC3, 48000Hz, stereo, 384kbps
Скачать: Сэмпл

General
Complete name : D:\Хлам\5O.0T3Hk0B.4epH0G0.2016.D.WEBRip.1400MB.avi
Format : AVI
Format/Info : Audio Video Interleave
File size : 1.37 GiB
Duration : 1h 24mn
Overall bit rate : 2 314 Kbps
Writing application : VirtualDubMod 1.5.10.2 (build 2540/release)
Writing library : VirtualDubMod build 2540/release

Video
ID : 0
Format : MPEG-4 Visual
Format profile : Advanced Simple@L5
Format settings, BVOP : 2
Format settings, QPel : No
Format settings, GMC : No warppoints
Format settings, Matrix : Default (MPEG)
Codec ID : XVID
Codec ID/Hint : XviD
Duration : 1h 24mn
Bit rate : 1 921 Kbps
Width : 720 pixels
Height : 304 pixels
Display aspect ratio : 2.35:1
Frame rate : 25.000 fps
Color space : YUV
Chroma subsampling : 4:2:0
Bit depth : 8 bits
Scan type : Progressive
Compression mode : Lossy
Bits/(Pixel*Frame) : 0.351
Stream size : 1.14 GiB (83%)
Writing library : XviD 1.2.1 (UTC 2008-12-04)

Audio
ID : 1
Format : AC-3
Format/Info : Audio Coding 3
Mode extension : CM (complete main)
Format settings, Endianness : Big
Codec ID : 2000
Duration : 1h 24mn
Bit rate mode : Constant
Bit rate : 384 Kbps
Channel(s) : 2 channels
Channel positions : Front: L R
Sampling rate : 48.0 KHz
Compression mode : Lossy
Stream size : 233 MiB (17%)
Alignment : Split accross interleaves
Interleave, duration : 40 ms (1.00 video frame)
Interleave, preload duration : 500 ms



Трекер:  [ 22-Фев-2016 13:09 ]

  

Скачать .torrent

Размер .torrent файла 14 KB


Размер: 1.37 GB
Хэш (hash) релиза: 5ee33428c0fdbadb85a9c684ef8b19d0a69e9af9
Подписка на обновления:

Торренты, похожие на Пятьдесят оттенков черного Fifty Shades of Black скачать торрент

Форум Название Автор Размер S L Добавлен
Зарубежные фильмы 2016-2018 (Новинки зарубежного кино) ·· Пятьдесят оттенков черного / Fifty Shades of Black (Майкл Тиддес / Michael Tiddes) [2016, США, комедия, WEB-DLRip] Dub (iTunes) Galfimbul 780183552744 MB 0 0 1461670108

14:28

26-Апр-16

Зарубежные фильмы 2016-2018 (Новинки зарубежного кино) ·· Пятьдесят оттенков черного / Fifty Shades of Black (Майкл Тиддес) [2016, комедия, BDRemux] iTunes Galfimbul 2402356687522.37 GB 0 0 1460733368

18:16

15-Апр-16

Зарубежные фильмы 2016-2018 (Новинки зарубежного кино) ·· Пятьдесят оттенков черного / Fifty Shades of Black (Майкл Тиддес / Michael Tiddes) [2016, США, Комедия, пародия, HDRip] Dub (iTunes) + Original Galfimbul 14751887361.37 GB 0 0 1460144790

22:46

8-Апр-16

Зарубежные фильмы до 2016 ·· Пятьдесят оттенков черного / Fifty Shades of Black (Майкл Тиддес / Michael Tiddes) [2016, США, комедия, WEB-DL 1080p] Dub (iTunes) Galfimbul 32168737953 GB 0 0 1459960296

19:31

6-Апр-16

Зарубежные фильмы 2016-2018 (Новинки зарубежного кино) ·· Пятьдесят оттенков черного / Fifty Shades of Black (Майкл Тиддес / Michael Tiddes) [2016, США, комедия, WEB-DLRip] Dub (iTunes) Galfimbul 14675824641.37 GB 0 0 1459427243

15:27

31-Мар-16

Зарубежные фильмы 2016-2018 (Новинки зарубежного кино) ·· Пятьдесят оттенков черного / Fifty Shades of Black (Майкл Тиддес / Michael Tiddes) [2016, США, комедия, WEB-DL 1080p] iTunes Galfimbul 32168737953 GB 0 0 1459412395

11:19

31-Мар-16

Зарубежные фильмы 2016-2018 (Новинки зарубежного кино) ·· Пятьдесят оттенков черного / Fifty Shades of Black (Майкл Тиддес / Michael Tiddes) [2016, США, комедия, WEB-DLRip] iTunes Galfimbul 14675824641.37 GB 0 0 1459410209

10:43

31-Мар-16

Зарубежные фильмы 2016-2018 (Новинки зарубежного кино) ·· Пятьдесят оттенков черного / Fifty Shades of Black (Майкл Тиддес / Michael Tiddes) [2016, США, комедия, WEBRip] Dub (Чистый звук) Galfimbul 14646165341.36 GB 0 0 1456260609

23:50

23-Фев-16

Еще никто не оставлял запись к записи скачать торрент Пятьдесят оттенков черного Fifty Shades of Black . Будь первым!

!Обратная связь