Скачать через торрент Пятьдесят оттенков черного Fifty Shades of Black Фильм бесплатно в хорошем качестве torrent

Скачивайте на UnionPeer.org фильмы через торрент без регистрации. Новинки кино в хорошем качестве через торрент. На UnionPeer.org можно скачать через торрент фильмы 2014 и 2015 годов. Самые новые фильмы.

Скачать торрент Пятьдесят оттенков черного Fifty Shades of Black бесплатно через .torrent фильм мультфильм сериал

Статистика раздачи
Размер:  1.36 GB   |    Зарегистрирован:  2 года 7 месяцев   |    .torrent скачан:  1583 раза   |   
Раздают:  1  
   
загрузка...
 
Автор Сообщение

Galfimbul

avatar Galfimbul


Пятьдесят оттенков черного / Fifty Shades of Black

Страна: США
Жанр: комедия
Год выпуска: 2016
Продолжительность: 01:24:02

Перевод: Профессиональный (дублированный) [Чистый звук]
Cубтитры: нет
Оригинальная аудиодорожка: нет

Режиссер: Майкл Тиддес / Michael Tiddes

В ролях: Марлон Уайанс, Кали Хоук, Фред Уиллард, Майк Эппс, Эффион Крокетт, Джейн Сеймур, Флоренс Хендерсон, Эндрю Бэчелор, Дженни Зигрино, Кейт Лэнг Джонсон

Описание: Неискушенная студентка колледжа знакомится с состоятельным бизнесменом, чьи сексуальные предпочтения омрачают их отношения.

Доп. информация: Удалена текстовая и голосовая реклама



Качество видео: WEBRip
Формат видео: AVI

Видео: XviD, 720x304, 25,000 кадров/сек, 1930 Кбит/сек
Аудио: AC-3, 48,0 КГц, 384 Кбит/сек, 2 канала
Общее
Формат                                   : AVI
Формат/Информация                        : Audio Video Interleave
Размер файла                             : 1,36 Гбайт
Продолжительность                        : 1 ч. 24 м.
Общий поток                              : 2323 Кбит/сек
Программа кодирования                    : VirtualDubMod 1.5.10.2 (build 2540/release)
Библиотека кодирования                   : VirtualDub build 35576/release

Видео
Идентификатор                            : 0
Формат                                   : MPEG-4 Visual
Профиль формата                          : Advanced Simple@L5
Параметр BVOP формата                    : 2
Параметр QPel формата                    : Нет
Параметр GMC формата                     : Без точки перехода
Параметр матрицы формата                 : Default (H.263)
Режим смешивания                         : Сжатый битовый поток
Идентификатор кодека                     : XVID
Идентификатор кодека/Подсказка           : XviD
Продолжительность                        : 1 ч. 24 м.
Битрейт                                  : 1930 Кбит/сек
Ширина                                   : 720 пикселей
Высота                                   : 304 пикселя
Соотношение сторон                       : 2,35:1
Частота кадров                           : 25,000 кадров/сек
Цветовое пространство                    : YUV
Субдискретизация насыщенности            : 4:2:0
Битовая глубина                          : 8 бит
Тип развёртки                            : Прогрессивная
Метод сжатия                             : С потерями
Бит/(Пиксели*Кадры)                      : 0.353
Размер потока                            : 1,13 Гбайт (83%)
Библиотека кодирования                   : XviD 73

Аудио
Идентификатор                            : 1
Формат                                   : AC-3
Формат/Информация                        : Audio Coding 3
Расширение режима                        : CM (complete main)
Параметр Endianness формата              : Big
Идентификатор кодека                     : 2000
Продолжительность                        : 1 ч. 24 м.
Вид битрейта                             : Постоянный
Битрейт                                  : 384 Кбит/сек
Каналы                                   : 2 канала
Расположение каналов                     : Front: L R
Частота                                  : 48,0 КГц
Метод сжатия                             : С потерями
Размер потока                            : 231 Мбайт (17%)
Выравнивание                             : Соединение по промежуткам
Продолжительность промежутка             : 40  мс. (1,00 видеокадр)
Время предзагрузки промежутка            : 512  мс.


Трекер:  [ 23-Фев-2016 22:30 ]

  

Скачать .torrent

Размер .torrent файла 14 KB


Размер: 1.36 GB
Хэш (hash) релиза: fcd8e9b642493b6854b88186c48f0a2926d93e55
Подписка на обновления:

Торренты, похожие на Пятьдесят оттенков черного Fifty Shades of Black скачать торрент

Форум Название Автор Размер S L Добавлен
Зарубежные фильмы 2016-2018 (Новинки зарубежного кино) ·· Пятьдесят оттенков черного / Fifty Shades of Black (Майкл Тиддес / Michael Tiddes) [2016, США, комедия, WEB-DLRip] Dub (iTunes) Galfimbul 780183552744 MB 0 0 1461670108

14:28

26-Апр-16

Зарубежные фильмы 2016-2018 (Новинки зарубежного кино) ·· Пятьдесят оттенков черного / Fifty Shades of Black (Майкл Тиддес) [2016, комедия, BDRemux] iTunes Galfimbul 2402356687522.37 GB 0 0 1460733368

18:16

15-Апр-16

Зарубежные фильмы 2016-2018 (Новинки зарубежного кино) ·· Пятьдесят оттенков черного / Fifty Shades of Black (Майкл Тиддес / Michael Tiddes) [2016, США, Комедия, пародия, HDRip] Dub (iTunes) + Original Galfimbul 14751887361.37 GB 0 0 1460144790

22:46

8-Апр-16

Зарубежные фильмы до 2016 ·· Пятьдесят оттенков черного / Fifty Shades of Black (Майкл Тиддес / Michael Tiddes) [2016, США, комедия, WEB-DL 1080p] Dub (iTunes) Galfimbul 32168737953 GB 0 0 1459960296

19:31

6-Апр-16

Зарубежные фильмы 2016-2018 (Новинки зарубежного кино) ·· Пятьдесят оттенков черного / Fifty Shades of Black (Майкл Тиддес / Michael Tiddes) [2016, США, комедия, WEB-DLRip] Dub (iTunes) Galfimbul 14675824641.37 GB 0 0 1459427243

15:27

31-Мар-16

Зарубежные фильмы 2016-2018 (Новинки зарубежного кино) ·· Пятьдесят оттенков черного / Fifty Shades of Black (Майкл Тиддес / Michael Tiddes) [2016, США, комедия, WEB-DL 1080p] iTunes Galfimbul 32168737953 GB 0 0 1459412395

11:19

31-Мар-16

Зарубежные фильмы 2016-2018 (Новинки зарубежного кино) ·· Пятьдесят оттенков черного / Fifty Shades of Black (Майкл Тиддес / Michael Tiddes) [2016, США, комедия, WEB-DLRip] iTunes Galfimbul 14675824641.37 GB 0 0 1459410209

10:43

31-Мар-16

Зарубежные фильмы 2016-2018 (Новинки зарубежного кино) ·· Пятьдесят оттенков черного / Fifty Shades of Black (Майкл Тиддес) [2016, США, комедия, WEBRip] Galfimbul 14711541761.37 GB 0 0 1456135745

13:09

22-Фев-16

Еще никто не оставлял запись к записи скачать торрент Пятьдесят оттенков черного Fifty Shades of Black . Будь первым!

!Обратная связь