Скачать через торрент Отвергнутая Forsaken Фильм бесплатно в хорошем качестве torrent

Скачивайте на UnionPeer.org фильмы через торрент без регистрации. Новинки кино в хорошем качестве через торрент. На UnionPeer.org можно скачать через торрент фильмы 2014 и 2015 годов. Самые новые фильмы.

Скачать торрент Отвергнутая Forsaken бесплатно через .torrent фильм мультфильм сериал

Статистика раздачи
Размер:  1.25 GB   |    Зарегистрирован:  2 года 7 месяцев   |    .torrent скачан:  145 раз   |   
Раздают:  1  
   
загрузка...
 
Автор Сообщение

Galfimbul

avatar Galfimbul


Отвергнутая / Forsaken

Страна: США
Жанр: ужасы
Год выпуска: 2016
Продолжительность: 01:29:22

Перевод: Одноголосый закадровый Васька Куролесов по субтитрам Enigma
Cубтитры: нет
Оригинальная аудиодорожка: нет

Режиссер: Джастин Прайс / Justin Price

В ролях: Мишель Каталано, Давид Казарес, Тони Гомез, Мишель Соза

Описание: Когда Священник обнаруживает, что его жена смертельно больна, он решается пойти против своей веры и использовать знания об изгнании нечистой силы, чтобы спасти ей жизнь.

Сэмпл: http://multi-up.com/1090243

Качество видео: HDRip
Формат видео: AVI

Видео: XviD, 1796 Кбит/с, 720x304, 23.976 fps
Аудио: AC3, 2 ch, 192 Кбит/с, 48.0 KHz

Релиз:
General
Complete name : G:\Forsaken.2016.HDRip_KypoJIecoB.avi
Format : AVI
Format/Info : Audio Video Interleave
File size : 1.25 GiB
Duration : 1h 29mn
Overall bit rate : 1 997 Kbps

Video
ID : 0
Format : MPEG-4 Visual
Format profile : Advanced Simple@L5
Format settings, BVOP : 2
Format settings, QPel : No
Format settings, GMC : No warppoints
Format settings, Matrix : Default (H.263)
Codec ID : XVID
Codec ID/Hint : XviD
Duration : 1h 29mn
Bit rate : 1 796 Kbps
Width : 720 pixels
Height : 304 pixels
Display aspect ratio : 2.35:1
Frame rate : 23.976 fps
Color space : YUV
Chroma subsampling : 4:2:0
Bit depth : 8 bits
Scan type : Progressive
Compression mode : Lossy
Bits/(Pixel*Frame) : 0.342
Stream size : 1.12 GiB (90%)
Writing library : XviD 66

Audio
ID : 1
Format : AC-3
Format/Info : Audio Coding 3
Mode extension : CM (complete main)
Format settings, Endianness : Big
Codec ID : 2000
Duration : 1h 29mn
Bit rate mode : Constant
Bit rate : 192 Kbps
Channel(s) : 2 channels
Channel positions : Front: L R
Sampling rate : 48.0 KHz
Compression mode : Lossy
Stream size : 123 MiB (10%)
Alignment : Split accross interleaves
Interleave, duration : 42 ms (1.00 video frame)
Interleave, preload duratio : 500 ms


Трекер:  [ 24-Фев-2016 09:00 ]

  

Скачать .torrent

Размер .torrent файла 50 KB


Размер: 1.25 GB
Хэш (hash) релиза: 5bdf7c3c6df7801e293bc75f13562eb9fac858ac
Подписка на обновления:

Еще никто не оставлял запись к записи скачать торрент Отвергнутая Forsaken . Будь первым!

!Обратная связь