Скачать порно через торрент Glamor Sensual Mai Hanano Cum Inside UnionPeer.org бесплатно онлайн HD качество

Скачать новое порно 2015, 2014 новинки через торрент UnionPeer.org

Порно торрент бесплатно ЮнионПир.орг

Статистика раздачи
Размер:  22.17 GB   |    Зарегистрирован:  6 лет 2 месяца   |    .torrent скачан:  124 раза   |   
Раздают:  1  
 

Скачать Glamor Sensual Mai Hanano Cum Inside [(BD-М04)] (Unknow, Amors) [uncen] [2008 г., Asian, Japanese Review, Vibrators, Oral, All Sex, Straight, Blu-Ray] [1080i] через torrent

 
 
Автор Сообщение

Galfimbul

avatar Galfimbul


Glamor Sensual Mai Hanano Cum Inside / Чувственный гламур Май Ханано -cперма внутри

[b]Год производства: may 2008 г.
Страна: Japan
Жанр: Asian, Japanese Review, Vibrators, Oral, All Sex, Straight
Продолжительность: 01:32:27
Цензура: Отсутствует

Язык: Японский
Субтитры: English

Студийный код фильма: (BD-М04)
Режиссер: Unknow
Студия: Amors

В ролях: Mai Hanano[/b]

Описание: Японская ДЕВУШКА Mai Hanano раздевается на природе и дома, мылит мочалку вибратором и чистит оружие мужчин.

[b]Меню: Есть
Тип HD видео: 1080i
Качество видео: Blu-Ray
Формат видео: MPEG
Видео: MPEG-2, 1920 x 1080, 29.970 fps, 38Мbps AVC Video
Аудио: Japanese LPCM 2.0 1536K[/b]
General
ID : 0 (0x0)
Format : BDAV
Format/Info : Blu-ray Video
File size : 21.5 GiB
Duration : 1h 32mn
Overall bit rate mode : Variable
Overall bit rate : 33.2 Mbps
Maximum Overall bit rate : 48.0 Mbps

Video
ID : 4113 (0x1011)
Menu ID : 1 (0x1)
Format : MPEG Video
Format version : Version 2
Format profile : Main@High
Format settings, BVOP : Yes
Format settings, Matrix : Default
Format settings, GOP : M=3, N=15
Format settings, picture st : Frame
Codec ID : 2
Duration : 1h 32mn
Bit rate mode : Variable
Bit rate : 30.4 Mbps
Maximum bit rate : 38.0 Mbps
Width : 1 920 pixels
Height : 1 080 pixels
Display aspect ratio : 16:9
Frame rate : 29.970 fps
Color space : YUV
Chroma subsampling : 4:2:0
Bit depth : 8 bits
Scan type : Interlaced
Scan order : Top Field First
Compression mode : Lossy
Bits/(Pixel*Frame) : 0.489
Time code of first frame : 00:00:00:00
Time code source : Group of pictures header
GOP, Open/Closed : Open
Stream size : 19.6 GiB (91%)
GOP, Open/Closed of first f : Closed

Audio
ID : 4352 (0x1100)
Menu ID : 1 (0x1)
Format : PCM
Format settings, Endianness : Big
Format settings, Sign : Signed
Muxing mode : Blu-ray
Codec ID : 128
Duration : 1h 32mn
Bit rate mode : Constant
Bit rate : 1 536 Kbps
Channel(s) : 2 channels
Channel positions : Front: L R
Sampling rate : 48.0 KHz
Bit depth : 16 bits
Stream size : 1 016 MiB (5%)

Text #1
ID : 4608 (0x1200)
Menu ID : 1 (0x1)
Format : PGS
Codec ID : 144

Text #2
ID : 4609 (0x1201)
Menu ID : 1 (0x1)
Format : PGS
Codec ID : 144

Text #3
ID : 4610 (0x1202)
Menu ID : 1 (0x1)
Format : PGS
Codec ID : 144

Text #4
ID : 4611 (0x1203)
Menu ID : 1 (0x1)
Format : PGS
Codec ID : 144

Text #5
ID : 4612 (0x1204)
Menu ID : 1 (0x1)
Format : PGS
Codec ID : 144

Text #6
ID : 4613 (0x1205)
Menu ID : 1 (0x1)
Format : PGS
Codec ID : 144

Text #7
ID : 4614 (0x1206)
Menu ID : 1 (0x1)
Format : PGS
Codec ID : 144


Внимание! AdBlock блокирует показ скриншотов, все вопросы к разработчикам )))
Трекер:  [ 06-Мар-2016 18:00 ]

  

Скачать .torrent

Размер .torrent файла 114 KB


Размер: 22.17 GB
Хэш (hash) релиза: 523a2143638f02d8f884c2daab24afc324b6e417

Еще никто не оставлял запись к записи скачать торрент Glamor Sensual Mai Hanano Cum Inside . Будь первым!

!Обратная связь