Скачать порно через торрент Black Diamonds Черные бриллианты UnionPeer.org бесплатно онлайн HD качество

Скачать новое порно 2015, 2014 новинки через торрент UnionPeer.org

Порно торрент бесплатно ЮнионПир.орг

Статистика раздачи
Размер:  4.4 GB   |    Зарегистрирован:  4 года 10 месяцев   |    .torrent скачан:  103 раза   |   
Раздают:  1   Качают:  1  
 

Скачать Black Diamonds / Черные бриллианты (Anarchy Films) [2010 г., One On One, Toys, Big Boobs, Black, WEB-DL, 720p] (Split scenes) через torrent

 
 
Автор Сообщение

Galfimbul ghost

avatar Galfimbul ghost


Black Diamonds / Черные бриллианты

Год производства: 2010 г.
Страна: USA
Жанр: One On One, Toys, Big Boobs, Black
Продолжительность: 01:56:00

Студия: Anarchy Films

Язык: Английский
В ролях: Sydnee Capri, Candice Nicole, Alicia Tease, Osa Lovely

Описание: The finest, baddest black girls around! Those phat asses shine like diamonds and their phat pussies glisten in all that pussy juice! They take every cock and all the dick they can, with one in each hand, whenever they can!

Доп. информация: SPLIT SCENES

Тип HD видео: 720p
Качество видео: WEB-DL
Формат видео: MP4
Видео: AVC, 1280x720, 30fps, VBR 5054-9821kbps
Аудио: AAC, 44100khz, Stereo, VBR 128-135kbps
General
Complete name : G:\!Treker!\Black diamonds\black-diamonds-scene1.720p.mp4
Format : MPEG-4
Format profile : Base Media
Codec ID : isom (isom/avc1/mp42)
File size : 874 MiB
Duration : 23mn 34s
Overall bit rate mode : Variable
Overall bit rate : 5 183 Kbps
Encoded date : UTC 2014-11-19 21:32:57
Tagged date : UTC 2014-11-19 21:32:57
Video
ID : 1
Format : AVC
Format/Info : Advanced Video Codec
Format profile : Main@L3.1
Format settings, CABAC : Yes
Format settings, ReFrames : 3 frames
Codec ID : avc1
Codec ID/Info : Advanced Video Coding
Duration : 23mn 33s
Bit rate : 5 054 Kbps
Maximum bit rate : 9 821 Kbps
Width : 1 280 pixels
Height : 720 pixels
Display aspect ratio : 16:9
Frame rate mode : Constant
Frame rate : 30.000 fps
Color space : YUV
Chroma subsampling : 4:2:0
Bit depth : 8 bits
Scan type : Progressive
Bits/(Pixel*Frame) : 0.183
Stream size : 852 MiB (97%)
Writing library : Zencoder Video Encoding System
Encoded date : UTC 2014-11-19 21:25:33
Tagged date : UTC 2014-11-19 21:32:59
Audio
ID : 2
Format : AAC
Format/Info : Advanced Audio Codec
Format profile : LC
Codec ID : 40
Duration : 23mn 34s
Bit rate mode : Variable
Bit rate : 128 Kbps
Maximum bit rate : 135 Kbps
Channel(s) : 2 channels
Channel positions : Front: L R
Sampling rate : 48.0 KHz
Frame rate : 46.875 fps (1024 spf)
Compression mode : Lossy
Stream size : 21.5 MiB (2%)
Encoded date : UTC 2014-11-19 21:32:59
Tagged date : UTC 2014-11-19 21:32:59

General
Complete name : G:\!Treker!\Black diamonds\black-diamonds-scene2.720p.mp4
Format : MPEG-4
Format profile : Base Media
Codec ID : isom (isom/avc1/mp42)
File size : 886 MiB
Duration : 22mn 34s
Overall bit rate mode : Variable
Overall bit rate : 5 487 Kbps
Encoded date : UTC 2014-11-19 21:35:30
Tagged date : UTC 2014-11-19 21:35:30
Video
ID : 1
Format : AVC
Format/Info : Advanced Video Codec
Format profile : Main@L3.1
Format settings, CABAC : Yes
Format settings, ReFrames : 3 frames
Codec ID : avc1
Codec ID/Info : Advanced Video Coding
Duration : 22mn 34s
Bit rate : 5 356 Kbps
Maximum bit rate : 11.7 Mbps
Width : 1 280 pixels
Height : 720 pixels
Display aspect ratio : 16:9
Frame rate mode : Constant
Frame rate : 30.000 fps
Color space : YUV
Chroma subsampling : 4:2:0
Bit depth : 8 bits
Scan type : Progressive
Bits/(Pixel*Frame) : 0.194
Stream size : 865 MiB (98%)
Writing library : Zencoder Video Encoding System
Encoded date : UTC 2014-11-19 21:31:16
Tagged date : UTC 2014-11-19 21:35:31
Audio
ID : 2
Format : AAC
Format/Info : Advanced Audio Codec
Format profile : LC
Codec ID : 40
Duration : 22mn 34s
Bit rate mode : Variable
Bit rate : 128 Kbps
Maximum bit rate : 134 Kbps
Channel(s) : 2 channels
Channel positions : Front: L R
Sampling rate : 48.0 KHz
Frame rate : 46.875 fps (1024 spf)
Compression mode : Lossy
Stream size : 20.6 MiB (2%)
Encoded date : UTC 2014-11-19 21:35:31
Tagged date : UTC 2014-11-19 21:35:31

General
Complete name : G:\!Treker!\Black diamonds\black-diamonds-scene3.720p.mp4
Format : MPEG-4
Format profile : Base Media
Codec ID : isom (isom/avc1/mp42)
File size : 847 MiB
Duration : 23mn 23s
Overall bit rate mode : Variable
Overall bit rate : 5 064 Kbps
Encoded date : UTC 2014-11-19 21:43:09
Tagged date : UTC 2014-11-19 21:43:09
Video
ID : 1
Format : AVC
Format/Info : Advanced Video Codec
Format profile : Main@L3.1
Format settings, CABAC : Yes
Format settings, ReFrames : 3 frames
Codec ID : avc1
Codec ID/Info : Advanced Video Coding
Duration : 23mn 22s
Bit rate : 4 936 Kbps
Maximum bit rate : 8 377 Kbps
Width : 1 280 pixels
Height : 720 pixels
Display aspect ratio : 16:9
Frame rate mode : Constant
Frame rate : 30.000 fps
Color space : YUV
Chroma subsampling : 4:2:0
Bit depth : 8 bits
Scan type : Progressive
Bits/(Pixel*Frame) : 0.179
Stream size : 825 MiB (97%)
Writing library : Zencoder Video Encoding System
Encoded date : UTC 2014-11-19 21:36:14
Tagged date : UTC 2014-11-19 21:43:10
Audio
ID : 2
Format : AAC
Format/Info : Advanced Audio Codec
Format profile : LC
Codec ID : 40
Duration : 23mn 23s
Bit rate mode : Variable
Bit rate : 128 Kbps
Maximum bit rate : 140 Kbps
Channel(s) : 2 channels
Channel positions : Front: L R
Sampling rate : 48.0 KHz
Frame rate : 46.875 fps (1024 spf)
Compression mode : Lossy
Stream size : 21.4 MiB (3%)
Encoded date : UTC 2014-11-19 21:43:10
Tagged date : UTC 2014-11-19 21:43:10

General
Complete name : G:\!Treker!\Black diamonds\black-diamonds-scene4.720p.mp4
Format : MPEG-4
Format profile : Base Media
Codec ID : isom (isom/avc1/mp42)
File size : 927 MiB
Duration : 24mn 24s
Overall bit rate mode : Variable
Overall bit rate : 5 313 Kbps
Encoded date : UTC 2014-11-19 21:48:03
Tagged date : UTC 2014-11-19 21:48:03
Video
ID : 1
Format : AVC
Format/Info : Advanced Video Codec
Format profile : Main@L3.1
Format settings, CABAC : Yes
Format settings, ReFrames : 3 frames
Codec ID : avc1
Codec ID/Info : Advanced Video Coding
Duration : 24mn 23s
Bit rate : 5 183 Kbps
Maximum bit rate : 11.7 Mbps
Width : 1 280 pixels
Height : 720 pixels
Display aspect ratio : 16:9
Frame rate mode : Constant
Frame rate : 30.000 fps
Color space : YUV
Chroma subsampling : 4:2:0
Bit depth : 8 bits
Scan type : Progressive
Bits/(Pixel*Frame) : 0.187
Stream size : 904 MiB (98%)
Writing library : Zencoder Video Encoding System
Encoded date : UTC 2014-11-19 21:41:01
Tagged date : UTC 2014-11-19 21:48:04
Audio
ID : 2
Format : AAC
Format/Info : Advanced Audio Codec
Format profile : LC
Codec ID : 40
Duration : 24mn 24s
Bit rate mode : Variable
Bit rate : 128 Kbps
Maximum bit rate : 136 Kbps
Channel(s) : 2 channels
Channel positions : Front: L R
Sampling rate : 48.0 KHz
Frame rate : 46.875 fps (1024 spf)
Compression mode : Lossy
Stream size : 22.3 MiB (2%)
Encoded date : UTC 2014-11-19 21:48:04
Tagged date : UTC 2014-11-19 21:48:04

General
Complete name : G:\!Treker!\Black diamonds\black-diamonds-scene5.720p.mp4
Format : MPEG-4
Format profile : Base Media
Codec ID : isom (isom/avc1/mp42)
File size : 968 MiB
Duration : 24mn 56s
Overall bit rate mode : Variable
Overall bit rate : 5 430 Kbps
Encoded date : UTC 2014-11-19 21:53:11
Tagged date : UTC 2014-11-19 21:53:11
Video
ID : 1
Format : AVC
Format/Info : Advanced Video Codec
Format profile : Main@L3.1
Format settings, CABAC : Yes
Format settings, ReFrames : 3 frames
Codec ID : avc1
Codec ID/Info : Advanced Video Coding
Duration : 24mn 55s
Bit rate : 5 302 Kbps
Maximum bit rate : 10.3 Mbps
Width : 1 280 pixels
Height : 720 pixels
Display aspect ratio : 16:9
Frame rate mode : Constant
Frame rate : 30.000 fps
Color space : YUV
Chroma subsampling : 4:2:0
Bit depth : 8 bits
Scan type : Progressive
Bits/(Pixel*Frame) : 0.192
Stream size : 945 MiB (98%)
Writing library : Zencoder Video Encoding System
Encoded date : UTC 2014-11-19 21:46:04
Tagged date : UTC 2014-11-19 21:53:12
Audio
ID : 2
Format : AAC
Format/Info : Advanced Audio Codec
Format profile : LC
Codec ID : 40
Duration : 24mn 56s
Bit rate mode : Variable
Bit rate : 128 Kbps
Maximum bit rate : 135 Kbps
Channel(s) : 2 channels
Channel positions : Front: L R
Sampling rate : 48.0 KHz
Frame rate : 46.875 fps (1024 spf)
Compression mode : Lossy
Stream size : 22.8 MiB (2%)
Encoded date : UTC 2014-11-19 21:53:12
Tagged date : UTC 2014-11-19 21:53:12


Внимание! AdBlock блокирует показ скриншотов, все вопросы к разработчикам )))
Трекер:  [ 07-Мар-2016 15:30 ]

  

Скачать .torrent

Размер .torrent файла 25 KB


Размер: 4.4 GB
Хэш (hash) релиза: 92afe00c3ef0b40e4ca31038c8b2918502e7438c

Торренты, похожие на Black Diamonds Черные бриллианты скачать торрент

Форум Название Автор Размер S L Добавлен
Этнические фильмы / Ethnic-Themed ·· Black Diamonds / Черные Бриллианты (Sean Michaels, Evil Angel) [2012 г., Gonzo, Black, Anal, DVDRip] (Imani Rose, Katt Dylan, Skin Diamond, Tori Taylor) Release Date: Aug 10, 2012! Galfimbul ghost 14656122881.36 GB 1 1 1370095456

17:04

1-Июн-13

Этнические фильмы / Ethnic-Themed ·· [Black] Black Diamonds / Чёрные бриллианты (Phil E Blunt, Candy Shop) [2010 г., All Sex, Black, DVDRip] Galfimbul ghost 729387008696 MB 0 0 1370089454

15:24

1-Июн-13

Этнические фильмы / Ethnic-Themed ·· Black Diamonds 2 / Черные Бриллианты 2 (Sean Michaels, Evil Angel Video) [2013 г., Gonzo, WEB-DL] (Ana Foxxx, Ashlynn Sixxx, Cali Sweet, Honey Dropz) [Split Scenes] [540p] Galfimbul ghost 18764098171.75 GB 1 1 1362603039

23:50

6-Мар-13

Этнические фильмы / Ethnic-Themed ·· Black Diamonds 2 / Черные Бриллианты 2 (Sean Michaels, Evil Angel Video) [2013 г., Gonzo, DVDRip] Galfimbul ghost 10702090041021 MB 0 0 1362602992

23:49

6-Мар-13

Фильмы без сюжета 1991-2010 / All Sex & Amateur 1991-2010 ·· Black Diamonds 2 / Черные Бриллианты 2 (Sean Michaels, Evil Angel Video) [2013 г., Gonzo, WEB-DL] (Ana Foxxx, Ashlynn Sixxx, Cali Sweet, Honey Dropz) [Split Scenes] [1080p] _N_ 66612412636.2 GB 0 0 1362076205

21:30

28-Фев-13

Фильмы без сюжета 1991-2010 / All Sex & Amateur 1991-2010 ·· Black Diamonds 2 / Черные Бриллианты 2 (Sean Michaels, Evil Angel Video) [2013 г., Gonzo, WEB-DL] (Ana Foxxx, Ashlynn Sixxx, Cali Sweet, Honey Dropz) [Split Scenes] [720p] _N_ 47473778014.42 GB 0 0 1362076203

21:30

28-Фев-13

Еще никто не оставлял запись к записи скачать торрент Black Diamonds Черные бриллианты . Будь первым!

!Обратная связь