Скачать порно через торрент Blonde confessions Признания блондинки UnionPeer.org бесплатно онлайн HD качество

Скачать новое порно 2015, 2014 новинки через торрент UnionPeer.org

Порно торрент бесплатно ЮнионПир.орг

Статистика раздачи
Размер:  2.81 GB   |    Зарегистрирован:  4 года 10 месяцев   |    .torrent скачан:  278 раз   |   
Раздают:  1  
 

Скачать Blonde confessions / Признания блондинки (Bluebird Films) [2009 г., big boobs, facial cumshot, fishnet, group, WEB-DL, 720p] через torrent

 
 
Автор Сообщение

Galfimbul ghost

avatar Galfimbul ghost


Blonde confessions / Признания блондинки

Год производства: 2009 г.
Страна: Europe
Жанр: big boobs, facial cumshot, fishnet, group
Продолжительность: 01:31:00

Студия: Bluebird Films

Язык: Английский
В ролях: Amy Azurra, Anaya Leon, Carly Parker, Cindy Behr, Hannah Callow, Michelle Thorne, Rita Faltoyano, Tanya Cox, Trina Michaels

Описание: Blonde hair and large beautiful breasts are the fare for the day in this well lit, wall to wall sex-fest. The combination of both European and American actors creates an atmosphere of ultra heated sexual tension that can only be released through hot hardcore sex in Bluebird Films'' Blonde Confessions.

Доп. информация: SPLIT SCENES, HD RELEASE DATE 01-12-14

Тип HD видео: 720p
Качество видео: WEB-DL
Формат видео: MP4
Видео: AVC, 1280x720, 30fps, VBR 4971-9917
Аудио: AAC, 44199khz, Stereo, VBR 128-131kbps
General
Complete name : G:\!Treker!\Blonde confessions\blonde-confessions-scene1.720p.mp4
Format : MPEG-4
Format profile : Base Media
Codec ID : isom (isom/avc1/mp42)
File size : 465 MiB
Duration : 12mn 44s
Overall bit rate mode : Variable
Overall bit rate : 5 098 Kbps
Encoded date : UTC 2014-11-18 07:12:33
Tagged date : UTC 2014-11-18 07:12:33
Video
ID : 1
Format : AVC
Format/Info : Advanced Video Codec
Format profile : Main@L3.1
Format settings, CABAC : Yes
Format settings, ReFrames : 3 frames
Codec ID : avc1
Codec ID/Info : Advanced Video Coding
Duration : 12mn 44s
Bit rate : 4 971 Kbps
Maximum bit rate : 9 917 Kbps
Width : 1 280 pixels
Height : 720 pixels
Display aspect ratio : 16:9
Frame rate mode : Constant
Frame rate : 30.000 fps
Color space : YUV
Chroma subsampling : 4:2:0
Bit depth : 8 bits
Scan type : Progressive
Bits/(Pixel*Frame) : 0.180
Stream size : 453 MiB (97%)
Writing library : Zencoder Video Encoding System
Encoded date : UTC 2014-11-18 07:06:09
Tagged date : UTC 2014-11-18 07:12:34
Audio
ID : 2
Format : AAC
Format/Info : Advanced Audio Codec
Format profile : LC
Codec ID : 40
Duration : 12mn 44s
Bit rate mode : Variable
Bit rate : 128 Kbps
Maximum bit rate : 131 Kbps
Channel(s) : 2 channels
Channel positions : Front: L R
Sampling rate : 48.0 KHz
Frame rate : 46.875 fps (1024 spf)
Compression mode : Lossy
Stream size : 11.7 MiB (3%)
Encoded date : UTC 2014-11-18 07:12:34
Tagged date : UTC 2014-11-18 07:12:34

General
Complete name : G:\!Treker!\Blonde confessions\blonde-confessions-scene2.720p.mp4
Format : MPEG-4
Format profile : Base Media
Codec ID : isom (isom/avc1/mp42)
File size : 307 MiB
Duration : 12mn 16s
Overall bit rate mode : Variable
Overall bit rate : 3 492 Kbps
Encoded date : UTC 2014-11-18 07:14:30
Tagged date : UTC 2014-11-18 07:14:30
Video
ID : 1
Format : AVC
Format/Info : Advanced Video Codec
Format profile : Main@L3.1
Format settings, CABAC : Yes
Format settings, ReFrames : 3 frames
Codec ID : avc1
Codec ID/Info : Advanced Video Coding
Duration : 12mn 16s
Bit rate : 3 362 Kbps
Maximum bit rate : 6 165 Kbps
Width : 1 280 pixels
Height : 720 pixels
Display aspect ratio : 16:9
Frame rate mode : Constant
Frame rate : 30.000 fps
Color space : YUV
Chroma subsampling : 4:2:0
Bit depth : 8 bits
Scan type : Progressive
Bits/(Pixel*Frame) : 0.122
Stream size : 295 MiB (96%)
Writing library : Zencoder Video Encoding System
Encoded date : UTC 2014-11-18 07:10:43
Tagged date : UTC 2014-11-18 07:14:31
Audio
ID : 2
Format : AAC
Format/Info : Advanced Audio Codec
Format profile : LC
Codec ID : 40
Duration : 12mn 16s
Bit rate mode : Variable
Bit rate : 128 Kbps
Maximum bit rate : 144 Kbps
Channel(s) : 2 channels
Channel positions : Front: L R
Sampling rate : 48.0 KHz
Frame rate : 46.875 fps (1024 spf)
Compression mode : Lossy
Stream size : 11.2 MiB (4%)
Encoded date : UTC 2014-11-18 07:14:31
Tagged date : UTC 2014-11-18 07:14:31

General
Complete name : G:\!Treker!\Blonde confessions\blonde-confessions-scene3.720p.mp4
Format : MPEG-4
Format profile : Base Media
Codec ID : isom (isom/avc1/mp42)
File size : 561 MiB
Duration : 16mn 21s
Overall bit rate mode : Variable
Overall bit rate : 4 792 Kbps
Encoded date : UTC 2014-11-18 07:21:23
Tagged date : UTC 2014-11-18 07:21:23
Video
ID : 1
Format : AVC
Format/Info : Advanced Video Codec
Format profile : Main@L3.1
Format settings, CABAC : Yes
Format settings, ReFrames : 3 frames
Codec ID : avc1
Codec ID/Info : Advanced Video Coding
Duration : 16mn 21s
Bit rate : 4 662 Kbps
Maximum bit rate : 8 258 Kbps
Width : 1 280 pixels
Height : 720 pixels
Display aspect ratio : 16:9
Frame rate mode : Constant
Frame rate : 30.000 fps
Color space : YUV
Chroma subsampling : 4:2:0
Bit depth : 8 bits
Scan type : Progressive
Bits/(Pixel*Frame) : 0.169
Stream size : 545 MiB (97%)
Writing library : Zencoder Video Encoding System
Encoded date : UTC 2014-11-18 07:16:17
Tagged date : UTC 2014-11-18 07:21:23
Audio
ID : 2
Format : AAC
Format/Info : Advanced Audio Codec
Format profile : LC
Codec ID : 40
Duration : 16mn 21s
Bit rate mode : Variable
Bit rate : 128 Kbps
Maximum bit rate : 132 Kbps
Channel(s) : 2 channels
Channel positions : Front: L R
Sampling rate : 48.0 KHz
Frame rate : 46.875 fps (1024 spf)
Compression mode : Lossy
Stream size : 15.0 MiB (3%)
Encoded date : UTC 2014-11-18 07:21:23
Tagged date : UTC 2014-11-18 07:21:23

General
Complete name : G:\!Treker!\Blonde confessions\blonde-confessions-scene4.720p.mp4
Format : MPEG-4
Format profile : Base Media
Codec ID : isom (isom/avc1/mp42)
File size : 381 MiB
Duration : 11mn 43s
Overall bit rate mode : Variable
Overall bit rate : 4 549 Kbps
Encoded date : UTC 2014-11-18 07:24:58
Tagged date : UTC 2014-11-18 07:24:58
Video
ID : 1
Format : AVC
Format/Info : Advanced Video Codec
Format profile : Main@L3.1
Format settings, CABAC : Yes
Format settings, ReFrames : 3 frames
Codec ID : avc1
Codec ID/Info : Advanced Video Coding
Duration : 11mn 43s
Bit rate : 4 420 Kbps
Maximum bit rate : 6 656 Kbps
Width : 1 280 pixels
Height : 720 pixels
Display aspect ratio : 16:9
Frame rate mode : Constant
Frame rate : 30.000 fps
Color space : YUV
Chroma subsampling : 4:2:0
Bit depth : 8 bits
Scan type : Progressive
Bits/(Pixel*Frame) : 0.160
Stream size : 370 MiB (97%)
Writing library : Zencoder Video Encoding System
Encoded date : UTC 2014-11-18 07:21:16
Tagged date : UTC 2014-11-18 07:24:59
Audio
ID : 2
Format : AAC
Format/Info : Advanced Audio Codec
Format profile : LC
Codec ID : 40
Duration : 11mn 43s
Bit rate mode : Variable
Bit rate : 128 Kbps
Maximum bit rate : 135 Kbps
Channel(s) : 2 channels
Channel positions : Front: L R
Sampling rate : 48.0 KHz
Frame rate : 46.875 fps (1024 spf)
Compression mode : Lossy
Stream size : 10.7 MiB (3%)
Encoded date : UTC 2014-11-18 07:24:59
Tagged date : UTC 2014-11-18 07:24:59

General
Complete name : G:\!Treker!\Blonde confessions\blonde-confessions-scene5.720p.mp4
Format : MPEG-4
Format profile : Base Media
Codec ID : isom (isom/avc1/mp42)
File size : 661 MiB
Duration : 19mn 43s
Overall bit rate mode : Variable
Overall bit rate : 4 688 Kbps
Encoded date : UTC 2014-11-18 07:32:23
Tagged date : UTC 2014-11-18 07:32:23
Video
ID : 1
Format : AVC
Format/Info : Advanced Video Codec
Format profile : Main@L3.1
Format settings, CABAC : Yes
Format settings, ReFrames : 3 frames
Codec ID : avc1
Codec ID/Info : Advanced Video Coding
Duration : 19mn 42s
Bit rate : 4 561 Kbps
Maximum bit rate : 8 083 Kbps
Width : 1 280 pixels
Height : 720 pixels
Display aspect ratio : 16:9
Frame rate mode : Constant
Frame rate : 30.000 fps
Color space : YUV
Chroma subsampling : 4:2:0
Bit depth : 8 bits
Scan type : Progressive
Bits/(Pixel*Frame) : 0.165
Stream size : 643 MiB (97%)
Writing library : Zencoder Video Encoding System
Encoded date : UTC 2014-11-18 07:26:09
Tagged date : UTC 2014-11-18 07:32:24
Audio
ID : 2
Format : AAC
Format/Info : Advanced Audio Codec
Format profile : LC
Codec ID : 40
Duration : 19mn 43s
Bit rate mode : Variable
Bit rate : 128 Kbps
Maximum bit rate : 157 Kbps
Channel(s) : 2 channels
Channel positions : Front: L R
Sampling rate : 48.0 KHz
Frame rate : 46.875 fps (1024 spf)
Compression mode : Lossy
Stream size : 18.1 MiB (3%)
Encoded date : UTC 2014-11-18 07:32:24
Tagged date : UTC 2014-11-18 07:32:24

General
Complete name : G:\!Treker!\Blonde confessions\blonde-confessions-scene6.720p.mp4
Format : MPEG-4
Format profile : Base Media
Codec ID : isom (isom/avc1/mp42)
File size : 499 MiB
Duration : 18mn 16s
Overall bit rate mode : Variable
Overall bit rate : 3 820 Kbps
Encoded date : UTC 2014-11-18 07:37:21
Tagged date : UTC 2014-11-18 07:37:21
Video
ID : 1
Format : AVC
Format/Info : Advanced Video Codec
Format profile : Main@L3.1
Format settings, CABAC : Yes
Format settings, ReFrames : 3 frames
Codec ID : avc1
Codec ID/Info : Advanced Video Coding
Duration : 18mn 16s
Bit rate : 3 691 Kbps
Maximum bit rate : 5 907 Kbps
Width : 1 280 pixels
Height : 720 pixels
Display aspect ratio : 16:9
Frame rate mode : Constant
Frame rate : 30.000 fps
Color space : YUV
Chroma subsampling : 4:2:0
Bit depth : 8 bits
Scan type : Progressive
Bits/(Pixel*Frame) : 0.133
Stream size : 482 MiB (97%)
Writing library : Zencoder Video Encoding System
Encoded date : UTC 2014-11-18 07:31:33
Tagged date : UTC 2014-11-18 07:37:22
Audio
ID : 2
Format : AAC
Format/Info : Advanced Audio Codec
Format profile : LC
Codec ID : 40
Duration : 18mn 16s
Bit rate mode : Variable
Bit rate : 128 Kbps
Maximum bit rate : 133 Kbps
Channel(s) : 2 channels
Channel positions : Front: L R
Sampling rate : 48.0 KHz
Frame rate : 46.875 fps (1024 spf)
Compression mode : Lossy
Stream size : 16.7 MiB (3%)
Encoded date : UTC 2014-11-18 07:37:22
Tagged date : UTC 2014-11-18 07:37:22


Внимание! AdBlock блокирует показ скриншотов, все вопросы к разработчикам )))
Трекер:  [ 07-Мар-2016 16:00 ]

  

Скачать .torrent

Размер .torrent файла 31 KB


Размер: 2.81 GB
Хэш (hash) релиза: 73329a65d018c07e01746f19a7efef3a14d3a41f

Торренты, похожие на Blonde confessions Признания блондинки скачать торрент

Форум Название Автор Размер S L Добавлен
Фильмы без сюжета 1991-2010 / All Sex & Amateur 1991-2010 ·· Blonde Confessions / Признания Блондинки (Bluebird Films) [2009, DvD rip, All Sex, Threesomes & More] spider91 21926952182.04 GB 2 0 1364560586

15:36

29-Мар-13

Фильмы без сюжета 1991-2010 / All Sex & Amateur 1991-2010 ·· Blonde Confessions / Признания Блондинки (Bluebird Films.) [2009 г., All Sex, DVDRip., Новинка!] spider91 746698311712 MB 0 0 1364560580

15:36

29-Мар-13

Еще никто не оставлял запись к записи скачать торрент Blonde confessions Признания блондинки . Будь первым!

!Обратная связь