Скачать порно через торрент ASS JUMPERS Прыгающие по жопам UnionPeer.org бесплатно онлайн HD качество

Скачать новое порно 2015, 2014 новинки через торрент UnionPeer.org

Порно торрент бесплатно ЮнионПир.орг

Статистика раздачи
Размер:  3.59 GB   |    Зарегистрирован:  5 лет 6 месяцев   |    .torrent скачан:  196 раз   |   
Раздают:  1  
 

Скачать ASS JUMPERS / Прыгающие по жопам (Bridgette Kerkove, LOADED DIGITAL) [2005 г., ANAL, ORAL, ALL SEX, WEB-DL, 720p] (Split scenes) через torrent

 
 
Автор Сообщение

Galfimbul

avatar Galfimbul


ASS JUMPERS / Прыгающие по жопам

Год производства: 2005 г.
Страна: USA
Жанр: ANAL, ORAL, ALL SEX
Продолжительность: 2:04:00
Режиссер: Bridgette Kerkove
Студия: LOADED DIGITAL

Язык: Английский
В ролях: Alexis Amore, Venus, Monica Mayhem, Anna Nova, Barbara Summer

Описание: Catch a ride on this! Six insatiable anal sluts stare down the business end of the biggest cocks in porn and turn around to take it deep in the tail pipe. Watch them work those bones to explosive cum blasts that they take right on the chin.

Доп. информация: SPLIT SCENES, HD RELEASE 17-07-2009

Тип HD видео: 720p
Качество видео: WEB-DL
Формат видео: MP4
Видео: AVC, 1280x720, 30 fps, VBR 3800-7100 kbps
Аудио: AAC, 44100, Stereo, VBR 128-151 kbps
General
Complete name : G:\!Treker!\Ass jumpers\ass-jumpers-bonus-scene1.mp4
Format : MPEG-4
Format profile : Base Media
Codec ID : isom (isom/iso2/avc1/mp41)
File size : 746 MiB
Duration : 35mn 13s
Overall bit rate mode : Variable
Overall bit rate : 2 961 Kbps
Encoded date : UTC 1970-01-01 00:00:00
Tagged date : UTC 1970-01-01 00:00:00
Writing application : Lavf52.18.0
Comment : FlixEngineLinux_8.0.12.0 (www.on2.com)
Video
ID : 1
Format : AVC
Format/Info : Advanced Video Codec
Format profile : Baseline@L3.1
Format settings, CABAC : No
Format settings, ReFrames : 1 frame
Format settings, GOP : M=1, N=20
Codec ID : avc1
Codec ID/Info : Advanced Video Coding
Duration : 35mn 13s
Bit rate : 2 827 Kbps
Width : 720 pixels
Height : 540 pixels
Display aspect ratio : 4:3
Frame rate : 30.000 fps
Color space : YUV
Chroma subsampling : 4:2:0
Bit depth : 8 bits
Scan type : Progressive
Bits/(Pixel*Frame) : 0.242
Stream size : 712 MiB (95%)
Encoded date : UTC 1970-01-01 00:00:00
Tagged date : UTC 1970-01-01 00:00:00
Audio
ID : 2
Format : AAC
Format/Info : Advanced Audio Codec
Format profile : LC
Codec ID : 40
Duration : 35mn 13s
Bit rate mode : Variable
Bit rate : 128 Kbps
Channel(s) : 2 channels
Channel positions : Front: L R
Sampling rate : 48.0 KHz
Frame rate : 46.875 fps (1024 spf)
Compression mode : Lossy
Stream size : 32.2 MiB (4%)
Encoded date : UTC 1970-01-01 00:00:00
Tagged date : UTC 1970-01-01 00:00:00

General
Complete name : G:\!Treker!\Ass jumpers\ass-jumpers-scene1.720p.mp4
Format : MPEG-4
Format profile : Base Media
Codec ID : isom (isom/avc1/mp42)
File size : 615 MiB
Duration : 21mn 38s
Overall bit rate mode : Variable
Overall bit rate : 3 973 Kbps
Encoded date : UTC 2014-11-19 08:02:47
Tagged date : UTC 2014-11-19 08:02:47
Video
ID : 1
Format : AVC
Format/Info : Advanced Video Codec
Format profile : Main@L3.1
Format settings, CABAC : Yes
Format settings, ReFrames : 3 frames
Codec ID : avc1
Codec ID/Info : Advanced Video Coding
Duration : 21mn 38s
Bit rate : 3 843 Kbps
Maximum bit rate : 7 111 Kbps
Width : 1 280 pixels
Height : 720 pixels
Display aspect ratio : 16:9
Frame rate mode : Constant
Frame rate : 30.000 fps
Color space : YUV
Chroma subsampling : 4:2:0
Bit depth : 8 bits
Scan type : Progressive
Bits/(Pixel*Frame) : 0.139
Stream size : 595 MiB (97%)
Writing library : Zencoder Video Encoding System
Encoded date : UTC 2014-11-19 07:55:55
Tagged date : UTC 2014-11-19 08:02:48
Audio
ID : 2
Format : AAC
Format/Info : Advanced Audio Codec
Format profile : LC
Codec ID : 40
Duration : 21mn 38s
Bit rate mode : Variable
Bit rate : 128 Kbps
Maximum bit rate : 151 Kbps
Channel(s) : 2 channels
Channel positions : Front: L R
Sampling rate : 44.1 KHz
Frame rate : 43.066 fps (1024 spf)
Compression mode : Lossy
Stream size : 19.8 MiB (3%)
Encoded date : UTC 2014-11-19 08:02:48
Tagged date : UTC 2014-11-19 08:02:48

General
Complete name : G:\!Treker!\Ass jumpers\ass-jumpers-scene2.720p.mp4
Format : MPEG-4
Format profile : Base Media
Codec ID : isom (isom/avc1/mp42)
File size : 617 MiB
Duration : 16mn 48s
Overall bit rate mode : Variable
Overall bit rate : 5 127 Kbps
Encoded date : UTC 2014-11-19 08:06:05
Tagged date : UTC 2014-11-19 08:06:05
Video
ID : 1
Format : AVC
Format/Info : Advanced Video Codec
Format profile : Main@L3.1
Format settings, CABAC : Yes
Format settings, ReFrames : 3 frames
Codec ID : avc1
Codec ID/Info : Advanced Video Coding
Duration : 16mn 48s
Bit rate : 4 996 Kbps
Maximum bit rate : 9 327 Kbps
Width : 1 280 pixels
Height : 720 pixels
Display aspect ratio : 16:9
Frame rate mode : Constant
Frame rate : 30.000 fps
Color space : YUV
Chroma subsampling : 4:2:0
Bit depth : 8 bits
Scan type : Progressive
Bits/(Pixel*Frame) : 0.181
Stream size : 601 MiB (97%)
Writing library : Zencoder Video Encoding System
Encoded date : UTC 2014-11-19 08:00:57
Tagged date : UTC 2014-11-19 08:06:06
Audio
ID : 2
Format : AAC
Format/Info : Advanced Audio Codec
Format profile : LC
Codec ID : 40
Duration : 16mn 48s
Bit rate mode : Variable
Bit rate : 128 Kbps
Maximum bit rate : 149 Kbps
Channel(s) : 2 channels
Channel positions : Front: L R
Sampling rate : 48.0 KHz
Frame rate : 46.875 fps (1024 spf)
Compression mode : Lossy
Stream size : 15.4 MiB (2%)
Encoded date : UTC 2014-11-19 08:06:06
Tagged date : UTC 2014-11-19 08:06:06

General
Complete name : G:\!Treker!\Ass jumpers\ass-jumpers-scene3.720p.mp4
Format : MPEG-4
Format profile : Base Media
Codec ID : isom (isom/avc1/mp42)
File size : 671 MiB
Duration : 23mn 41s
Overall bit rate mode : Variable
Overall bit rate : 3 960 Kbps
Encoded date : UTC 2014-11-19 08:12:43
Tagged date : UTC 2014-11-19 08:12:43
Video
ID : 1
Format : AVC
Format/Info : Advanced Video Codec
Format profile : Main@L3.1
Format settings, CABAC : Yes
Format settings, ReFrames : 3 frames
Codec ID : avc1
Codec ID/Info : Advanced Video Coding
Duration : 23mn 41s
Bit rate : 3 830 Kbps
Maximum bit rate : 6 754 Kbps
Width : 1 280 pixels
Height : 720 pixels
Display aspect ratio : 16:9
Frame rate mode : Constant
Frame rate : 30.000 fps
Color space : YUV
Chroma subsampling : 4:2:0
Bit depth : 8 bits
Scan type : Progressive
Bits/(Pixel*Frame) : 0.139
Stream size : 649 MiB (97%)
Writing library : Zencoder Video Encoding System
Encoded date : UTC 2014-11-19 08:06:17
Tagged date : UTC 2014-11-19 08:12:44
Audio
ID : 2
Format : AAC
Format/Info : Advanced Audio Codec
Format profile : LC
Codec ID : 40
Duration : 23mn 40s
Bit rate mode : Variable
Bit rate : 128 Kbps
Maximum bit rate : 140 Kbps
Channel(s) : 2 channels
Channel positions : Front: L R
Sampling rate : 44.1 KHz
Frame rate : 43.066 fps (1024 spf)
Compression mode : Lossy
Stream size : 21.7 MiB (3%)
Encoded date : UTC 2014-11-19 08:12:44
Tagged date : UTC 2014-11-19 08:12:44

General
Complete name : G:\!Treker!\Ass jumpers\ass-jumpers-scene4.720p.mp4
Format : MPEG-4
Format profile : Base Media
Codec ID : isom (isom/avc1/mp42)
File size : 755 MiB
Duration : 20mn 38s
Overall bit rate mode : Variable
Overall bit rate : 5 112 Kbps
Encoded date : UTC 2014-11-19 08:16:37
Tagged date : UTC 2014-11-19 08:16:37
Video
ID : 1
Format : AVC
Format/Info : Advanced Video Codec
Format profile : Main@L3.1
Format settings, CABAC : Yes
Format settings, ReFrames : 3 frames
Codec ID : avc1
Codec ID/Info : Advanced Video Coding
Duration : 20mn 38s
Bit rate : 4 982 Kbps
Maximum bit rate : 11.6 Mbps
Width : 1 280 pixels
Height : 720 pixels
Display aspect ratio : 16:9
Frame rate mode : Constant
Frame rate : 30.000 fps
Color space : YUV
Chroma subsampling : 4:2:0
Bit depth : 8 bits
Scan type : Progressive
Bits/(Pixel*Frame) : 0.180
Stream size : 736 MiB (97%)
Writing library : Zencoder Video Encoding System
Encoded date : UTC 2014-11-19 08:10:37
Tagged date : UTC 2014-11-19 08:16:38
Audio
ID : 2
Format : AAC
Format/Info : Advanced Audio Codec
Format profile : LC
Codec ID : 40
Duration : 20mn 38s
Bit rate mode : Variable
Bit rate : 128 Kbps
Maximum bit rate : 140 Kbps
Channel(s) : 2 channels
Channel positions : Front: L R
Sampling rate : 48.0 KHz
Frame rate : 46.875 fps (1024 spf)
Compression mode : Lossy
Stream size : 18.9 MiB (3%)
Encoded date : UTC 2014-11-19 08:16:38
Tagged date : UTC 2014-11-19 08:16:38

General
Complete name : G:\!Treker!\Ass jumpers\ass-jumpers-scene5.720p.mp4
Format : MPEG-4
Format profile : Base Media
Codec ID : isom (isom/avc1/mp42)
File size : 273 MiB
Duration : 9mn 21s
Overall bit rate mode : Variable
Overall bit rate : 4 077 Kbps
Encoded date : UTC 2014-11-19 08:18:31
Tagged date : UTC 2014-11-19 08:18:31
Video
ID : 1
Format : AVC
Format/Info : Advanced Video Codec
Format profile : Main@L3.1
Format settings, CABAC : Yes
Format settings, ReFrames : 3 frames
Codec ID : avc1
Codec ID/Info : Advanced Video Coding
Duration : 9mn 21s
Bit rate : 3 946 Kbps
Maximum bit rate : 6 166 Kbps
Width : 1 280 pixels
Height : 720 pixels
Display aspect ratio : 16:9
Frame rate mode : Constant
Frame rate : 30.000 fps
Color space : YUV
Chroma subsampling : 4:2:0
Bit depth : 8 bits
Scan type : Progressive
Bits/(Pixel*Frame) : 0.143
Stream size : 264 MiB (97%)
Writing library : Zencoder Video Encoding System
Encoded date : UTC 2014-11-19 08:15:45
Tagged date : UTC 2014-11-19 08:18:32
Audio
ID : 2
Format : AAC
Format/Info : Advanced Audio Codec
Format profile : LC
Codec ID : 40
Duration : 9mn 21s
Bit rate mode : Variable
Bit rate : 128 Kbps
Maximum bit rate : 135 Kbps
Channel(s) : 2 channels
Channel positions : Front: L R
Sampling rate : 44.1 KHz
Frame rate : 43.066 fps (1024 spf)
Compression mode : Lossy
Stream size : 8.55 MiB (3%)
Encoded date : UTC 2014-11-19 08:18:32
Tagged date : UTC 2014-11-19 08:18:32


Внимание! AdBlock блокирует показ скриншотов, все вопросы к разработчикам )))
Трекер:  [ 07-Мар-2016 16:00 ]

  

Скачать .torrent

Размер .torrent файла 39 KB


Размер: 3.59 GB
Хэш (hash) релиза: 290c003260552e2a14b4ebe7b6dfb6b8e46b9968

Торренты, похожие на ASS JUMPERS Прыгающие по жопам скачать торрент

Форум Название Автор Размер S L Добавлен
Архив (общий) ·· ASS JUMPERS / Прыгающие по жопам (LOADED DIGITAL) [2005 г., ANAL, ORAL, ALL SEX, WEB-DL] Galfimbul 38570301153.59 GB 0 0 1457319945

06:05

7-Мар-16

Еще никто не оставлял запись к записи скачать торрент ASS JUMPERS Прыгающие по жопам . Будь первым!

!Обратная связь