Скачать порно через торрент Busted Butts 2 Взломаные задницы 2 UnionPeer.org бесплатно онлайн HD качество

Скачать новое порно 2015, 2014 новинки через торрент UnionPeer.org

Порно торрент бесплатно ЮнионПир.орг

Статистика раздачи
Размер:  5.64 GB   |    Зарегистрирован:  4 года 10 месяцев   |    .torrent скачан:  150 раз   |   
Раздают:  1  
 

Скачать Busted Butts 2 / Взломаные задницы 2 (Paradise Film) [2012 г., Anal, Solo, Toys, Big Boobs,Facial, WEB-DL, 720p] через torrent

 
 
Автор Сообщение

Galfimbul ghost

avatar Galfimbul ghost


Busted Butts 2 / Взломаные задницы 2

Год производства: 2012 г.
Страна: Europe
Жанр: Anal, Solo, Toys, Big Boobs,Facial
Продолжительность: 02:16:00

Студия: Paradise Film

Язык: Английский
В ролях: Ddebbie White, Kerry Louise, Vivian, Britney, Alisha Lane

Описание: Busted Butts 2 is about 5 luscious babes who have rockin'' hot bodies that are willing to do anything to reach an orgasm including, getting their tight asshole drilled and filled with a fresh made creampie cumshot that one of them will let you see a close up of it oozing back out of their anus. You''ll also get to see facials, titty fucking and an odd strap on face fuck.

Доп. информация: Split scenes. HD release date 03-02-2013

Тип HD видео: 720p
Качество видео: WEB-DL
Формат видео: MP4
Видео: AVC, 1280x720, 30fps, VBR 5500-8960kbps
Аудио: AAC, 44100khz, Stereo, VBR 128-146kbps
General
Complete name : G:\!Treker!\Busted butts 2\busted-butts-2-scene1.720p.mp4
Format : MPEG-4
Format profile : Base Media / Version 2
Codec ID : mp42 (isom/avc1/mp42/3gp5)
File size : 1.25 GiB
Duration : 30mn 41s
Overall bit rate mode : Variable
Overall bit rate : 5 808 Kbps
Movie name : busted-butts-2-scene1
Encoded date : UTC 2013-01-19 17:01:38
Tagged date : UTC 2013-01-19 17:01:38
Comment : VideosZ.com
Video
ID : 201
Format : AVC
Format/Info : Advanced Video Codec
Format profile : Baseline@L4
Format settings, CABAC : No
Format settings, ReFrames : 3 frames
Codec ID : avc1
Codec ID/Info : Advanced Video Coding
Duration : 30mn 41s
Bit rate : 5 500 Kbps
Maximum bit rate : 7 676 Kbps
Width : 1 280 pixels
Height : 720 pixels
Display aspect ratio : 16:9
Frame rate mode : Constant
Frame rate : 30.000 fps
Color space : YUV
Chroma subsampling : 4:2:0
Bit depth : 8 bits
Scan type : Progressive
Bits/(Pixel*Frame) : 0.199
Stream size : 1.18 GiB (95%)
Title : /home/vz/encoder/tmp/HD-busted-butts-2-scene1.mp4.h264 - Imported with GPAC 0.4.6-DEV (internal rev. 8)
Writing library : x264 core 112
Encoding settings : cabac=0 / ref=3 / deblock=1:0:0 / analyse=0x1:0x11 / me=umh / subme=6 / psy=1 / psy_rd=0.80:0.20 / mixed_ref=1 / me_range=24 / chroma_me=1 / trellis=1 / 8x8dct=0 / cqm=0 / deadzone=21,11 / fast_pskip=0 / chroma_qp_offset=-3 / threads=24 / sliced_threads=0 / nr=0 / decimate=0 / interlaced=0 / constrained_intra=0 / bframes=0 / weightp=0 / keyint=300 / keyint_min=30 / scenecut=40 / intra_refresh=0 / rc_lookahead=40 / rc=cbr / mbtree=0 / bitrate=5500 / ratetol=1.0 / qcomp=0.60 / qpmin=0 / qpmax=51 / qpstep=4 / vbv_maxrate=5500 / vbv_bufsize=14475 / nal_hrd=none / ip_ratio=1.40 / aq=2:1.00
Encoded date : UTC 2013-01-19 17:01:38
Tagged date : UTC 2013-01-19 17:01:55
Audio
ID : 101
Format : AAC
Format/Info : Advanced Audio Codec
Format profile : LC
Codec ID : 40
Duration : 30mn 41s
Bit rate mode : Variable
Bit rate : 128 Kbps
Maximum bit rate : 162 Kbps
Channel(s) : 2 channels
Channel positions : Front: L R
Sampling rate : 44.1 KHz
Frame rate : 43.066 fps (1024 spf)
Compression mode : Lossy
Stream size : 28.1 MiB (2%)
Title : LC-AAC Stereo
Encoded date : UTC 2013-01-19 17:01:44
Tagged date : UTC 2013-01-19 17:01:55
Other #1
ID : 2
Type : Object description
Format : System
Codec ID : 1
Duration : 1s 0ms
Encoded date : UTC 2013-01-19 17:01:52
Tagged date : UTC 2013-01-19 17:01:55
Other #2
ID : 1
Type : Scene description
Format : System Core
Codec ID : 2
Duration : 1s 0ms
Encoded date : UTC 2013-01-19 17:01:52
Tagged date : UTC 2013-01-19 17:01:55
Other #3
ID : 65736
Type : Hint
Format : RTP
Codec ID : rtp
Duration : 30mn 41s
Encoded date : UTC 2013-01-19 17:01:52
Tagged date : UTC 2013-01-19 17:01:55
Other #4
ID : 65636
Type : Hint
Format : RTP
Codec ID : rtp
Duration : 30mn 41s
Encoded date : UTC 2013-01-19 17:01:54
Tagged date : UTC 2013-01-19 17:01:55
Bit rate mode : VBR

General
Complete name : G:\!Treker!\Busted butts 2\busted-butts-2-scene2.720p.mp4
Format : MPEG-4
Format profile : Base Media / Version 2
Codec ID : mp42 (isom/avc1/mp42/3gp5)
File size : 720 MiB
Duration : 17mn 19s
Overall bit rate mode : Variable
Overall bit rate : 5 815 Kbps
Movie name : busted-butts-2-scene2
Encoded date : UTC 2013-01-19 16:10:11
Tagged date : UTC 2013-01-19 16:10:11
Comment : VideosZ.com

Video
ID : 201
Format : AVC
Format/Info : Advanced Video Codec
Format profile : Baseline@L4
Format settings, CABAC : No
Format settings, ReFrames : 3 frames
Codec ID : avc1
Codec ID/Info : Advanced Video Coding
Duration : 17mn 19s
Bit rate : 5 500 Kbps
Maximum bit rate : 7 350 Kbps
Width : 1 280 pixels
Height : 720 pixels
Display aspect ratio : 16:9
Frame rate mode : Constant
Frame rate : 30.000 fps
Color space : YUV
Chroma subsampling : 4:2:0
Bit depth : 8 bits
Scan type : Progressive
Bits/(Pixel*Frame) : 0.199
Stream size : 681 MiB (95%)
Title : /home/vz/encoder/tmp/HD-busted-butts-2-scene2.mp4.h264 - Imported with GPAC 0.4.6-DEV (internal rev. 8)
Writing library : x264 core 112
Encoding settings : cabac=0 / ref=3 / deblock=1:0:0 / analyse=0x1:0x11 / me=umh / subme=6 / psy=1 / psy_rd=0.80:0.20 / mixed_ref=1 / me_range=24 / chroma_me=1 / trellis=1 / 8x8dct=0 / cqm=0 / deadzone=21,11 / fast_pskip=0 / chroma_qp_offset=-3 / threads=24 / sliced_threads=0 / nr=0 / decimate=0 / interlaced=0 / constrained_intra=0 / bframes=0 / weightp=0 / keyint=300 / keyint_min=30 / scenecut=40 / intra_refresh=0 / rc_lookahead=40 / rc=cbr / mbtree=0 / bitrate=5500 / ratetol=1.0 / qcomp=0.60 / qpmin=0 / qpmax=51 / qpstep=4 / vbv_maxrate=5500 / vbv_bufsize=14475 / nal_hrd=none / ip_ratio=1.40 / aq=2:1.00
Encoded date : UTC 2013-01-19 16:10:11
Tagged date : UTC 2013-01-19 16:10:20
Audio
ID : 101
Format : AAC
Format/Info : Advanced Audio Codec
Format profile : LC
Codec ID : 40
Duration : 17mn 18s
Bit rate mode : Variable
Bit rate : 128 Kbps
Maximum bit rate : 166 Kbps
Channel(s) : 2 channels
Channel positions : Front: L R
Sampling rate : 44.1 KHz
Frame rate : 43.066 fps (1024 spf)
Compression mode : Lossy
Stream size : 15.8 MiB (2%)
Title : LC-AAC Stereo
Encoded date : UTC 2013-01-19 16:10:16
Tagged date : UTC 2013-01-19 16:10:20
Other #1
ID : 2
Type : Object description
Format : System
Codec ID : 1
Duration : 1s 0ms
Encoded date : UTC 2013-01-19 16:10:19
Tagged date : UTC 2013-01-19 16:10:20
Other #2
ID : 1
Type : Scene description
Format : System Core
Codec ID : 2
Duration : 1s 0ms
Encoded date : UTC 2013-01-19 16:10:19
Tagged date : UTC 2013-01-19 16:10:20
Other #3
ID : 65736
Type : Hint
Format : RTP
Codec ID : rtp
Duration : 17mn 19s
Encoded date : UTC 2013-01-19 16:10:19
Tagged date : UTC 2013-01-19 16:10:20
Other #4
ID : 65636
Type : Hint
Format : RTP
Codec ID : rtp
Duration : 17mn 18s
Encoded date : UTC 2013-01-19 16:10:20
Tagged date : UTC 2013-01-19 16:10:20
Bit rate mode : VBR

General
Complete name : G:\!Treker!\Busted butts 2\busted-butts-2-scene3.720p.mp4
Format : MPEG-4
Format profile : Base Media / Version 2
Codec ID : mp42 (isom/avc1/mp42/3gp5)
File size : 1.77 GiB
Duration : 43mn 29s
Overall bit rate mode : Variable
Overall bit rate : 5 811 Kbps
Movie name : busted-butts-2-scene3
Encoded date : UTC 2013-01-19 15:09:43
Tagged date : UTC 2013-01-19 15:09:43
Comment : VideosZ.com

Video
ID : 201
Format : AVC
Format/Info : Advanced Video Codec
Format profile : Baseline@L4
Format settings, CABAC : No
Format settings, ReFrames : 3 frames
Codec ID : avc1
Codec ID/Info : Advanced Video Coding
Duration : 43mn 29s
Bit rate : 5 500 Kbps
Maximum bit rate : 7 153 Kbps
Width : 1 280 pixels
Height : 720 pixels
Display aspect ratio : 16:9
Frame rate mode : Constant
Frame rate : 30.000 fps
Color space : YUV
Chroma subsampling : 4:2:0
Bit depth : 8 bits
Scan type : Progressive
Bits/(Pixel*Frame) : 0.199
Stream size : 1.67 GiB (95%)
Title : /home/vz/encoder/tmp/HD-busted-butts-2-scene3.mp4.h264 - Imported with GPAC 0.4.6-DEV (internal rev. 8)
Writing library : x264 core 112
Encoding settings : cabac=0 / ref=3 / deblock=1:0:0 / analyse=0x1:0x11 / me=umh / subme=6 / psy=1 / psy_rd=0.80:0.20 / mixed_ref=1 / me_range=24 / chroma_me=1 / trellis=1 / 8x8dct=0 / cqm=0 / deadzone=21,11 / fast_pskip=0 / chroma_qp_offset=-3 / threads=24 / sliced_threads=0 / nr=0 / decimate=0 / interlaced=0 / constrained_intra=0 / bframes=0 / weightp=0 / keyint=300 / keyint_min=30 / scenecut=40 / intra_refresh=0 / rc_lookahead=40 / rc=cbr / mbtree=0 / bitrate=5500 / ratetol=1.0 / qcomp=0.60 / qpmin=0 / qpmax=51 / qpstep=4 / vbv_maxrate=5500 / vbv_bufsize=14475 / nal_hrd=none / ip_ratio=1.40 / aq=2:1.00
Encoded date : UTC 2013-01-19 15:09:43
Tagged date : UTC 2013-01-19 15:10:09
Audio
ID : 101
Format : AAC
Format/Info : Advanced Audio Codec
Format profile : LC
Codec ID : 40
Duration : 43mn 29s
Bit rate mode : Variable
Bit rate : 128 Kbps
Maximum bit rate : 158 Kbps
Channel(s) : 2 channels
Channel positions : Front: L R
Sampling rate : 44.1 KHz
Frame rate : 43.066 fps (1024 spf)
Compression mode : Lossy
Stream size : 39.8 MiB (2%)
Title : LC-AAC Stereo
Encoded date : UTC 2013-01-19 15:09:56
Tagged date : UTC 2013-01-19 15:10:09
Other #1
ID : 2
Type : Object description
Format : System
Codec ID : 1
Duration : 1s 0ms
Encoded date : UTC 2013-01-19 15:10:05
Tagged date : UTC 2013-01-19 15:10:09
Other #2
ID : 1
Type : Scene description
Format : System Core
Codec ID : 2
Duration : 1s 0ms
Encoded date : UTC 2013-01-19 15:10:05
Tagged date : UTC 2013-01-19 15:10:09
Other #3
ID : 65736
Type : Hint
Format : RTP
Codec ID : rtp
Duration : 43mn 29s
Encoded date : UTC 2013-01-19 15:10:05
Tagged date : UTC 2013-01-19 15:10:09
Other #4
ID : 65636
Type : Hint
Format : RTP
Codec ID : rtp
Duration : 43mn 29s
Encoded date : UTC 2013-01-19 15:10:08
Tagged date : UTC 2013-01-19 15:10:09
Bit rate mode : VBR

General
Complete name : G:\!Treker!\Busted butts 2\busted-butts-2-scene4.720p.mp4
Format : MPEG-4
Format profile : Base Media / Version 2
Codec ID : mp42 (isom/avc1/mp42/3gp5)
File size : 1.13 GiB
Duration : 27mn 50s
Overall bit rate mode : Variable
Overall bit rate : 5 805 Kbps
Movie name : busted-butts-2-scene4
Encoded date : UTC 2013-01-19 14:27:09
Tagged date : UTC 2013-01-19 14:27:09
Comment : VideosZ.com
Video
ID : 201
Format : AVC
Format/Info : Advanced Video Codec
Format profile : Baseline@L4
Format settings, CABAC : No
Format settings, ReFrames : 3 frames
Codec ID : avc1
Codec ID/Info : Advanced Video Coding
Duration : 27mn 50s
Bit rate : 5 500 Kbps
Maximum bit rate : 8 960 Kbps
Width : 1 280 pixels
Height : 720 pixels
Display aspect ratio : 16:9
Frame rate mode : Constant
Frame rate : 30.000 fps
Color space : YUV
Chroma subsampling : 4:2:0
Bit depth : 8 bits
Scan type : Progressive
Bits/(Pixel*Frame) : 0.199
Stream size : 1.07 GiB (95%)
Title : /home/vz/encoder/tmp/HD-busted-butts-2-scene4.mp4.h264 - Imported with GPAC 0.4.6-DEV (internal rev. 8)
Writing library : x264 core 112
Encoding settings : cabac=0 / ref=3 / deblock=1:0:0 / analyse=0x1:0x11 / me=umh / subme=6 / psy=1 / psy_rd=0.80:0.20 / mixed_ref=1 / me_range=24 / chroma_me=1 / trellis=1 / 8x8dct=0 / cqm=0 / deadzone=21,11 / fast_pskip=0 / chroma_qp_offset=-3 / threads=24 / sliced_threads=0 / nr=0 / decimate=0 / interlaced=0 / constrained_intra=0 / bframes=0 / weightp=0 / keyint=300 / keyint_min=30 / scenecut=40 / intra_refresh=0 / rc_lookahead=40 / rc=cbr / mbtree=0 / bitrate=5500 / ratetol=1.0 / qcomp=0.60 / qpmin=0 / qpmax=51 / qpstep=4 / vbv_maxrate=5500 / vbv_bufsize=14475 / nal_hrd=none / ip_ratio=1.40 / aq=2:1.00
Encoded date : UTC 2013-01-19 14:27:09
Tagged date : UTC 2013-01-19 14:27:22
Audio
ID : 101
Format : AAC
Format/Info : Advanced Audio Codec
Format profile : LC
Codec ID : 40
Duration : 27mn 50s
Bit rate mode : Variable
Bit rate : 128 Kbps
Maximum bit rate : 146 Kbps
Channel(s) : 2 channels
Channel positions : Front: L R
Sampling rate : 44.1 KHz
Frame rate : 43.066 fps (1024 spf)
Compression mode : Lossy
Stream size : 25.5 MiB (2%)
Title : LC-AAC Stereo
Encoded date : UTC 2013-01-19 14:27:15
Tagged date : UTC 2013-01-19 14:27:22
Other #1
ID : 2
Type : Object description
Format : System
Codec ID : 1
Duration : 1s 0ms
Encoded date : UTC 2013-01-19 14:27:20
Tagged date : UTC 2013-01-19 14:27:22
Other #2
ID : 1
Type : Scene description
Format : System Core
Codec ID : 2
Duration : 1s 0ms
Encoded date : UTC 2013-01-19 14:27:20
Tagged date : UTC 2013-01-19 14:27:22
Other #3
ID : 65736
Type : Hint
Format : RTP
Codec ID : rtp
Duration : 27mn 50s
Encoded date : UTC 2013-01-19 14:27:20
Tagged date : UTC 2013-01-19 14:27:22
Other #4
ID : 65636
Type : Hint
Format : RTP
Codec ID : rtp
Duration : 27mn 50s
Encoded date : UTC 2013-01-19 14:27:22
Tagged date : UTC 2013-01-19 14:27:22
Bit rate mode : VBR

General
Complete name : G:\!Treker!\Busted butts 2\busted-butts-2-scene5.720p.mp4
Format : MPEG-4
Format profile : Base Media / Version 2
Codec ID : mp42 (isom/avc1/mp42/3gp5)
File size : 816 MiB
Duration : 19mn 39s
Overall bit rate mode : Variable
Overall bit rate : 5 806 Kbps
Movie name : busted-butts-2-scene5
Encoded date : UTC 2013-01-19 12:11:04
Tagged date : UTC 2013-01-19 12:11:04
Comment : VideosZ.com
Video
ID : 201
Format : AVC
Format/Info : Advanced Video Codec
Format profile : Baseline@L4
Format settings, CABAC : No
Format settings, ReFrames : 3 frames
Codec ID : avc1
Codec ID/Info : Advanced Video Coding
Duration : 19mn 39s
Bit rate : 5 500 Kbps
Maximum bit rate : 7 906 Kbps
Width : 1 280 pixels
Height : 720 pixels
Display aspect ratio : 16:9
Frame rate mode : Constant
Frame rate : 30.000 fps
Color space : YUV
Chroma subsampling : 4:2:0
Bit depth : 8 bits
Scan type : Progressive
Bits/(Pixel*Frame) : 0.199
Stream size : 772 MiB (95%)
Title : /home/vz/encoder/tmp/HD-busted-butts-2-scene5.mp4.h264 - Imported with GPAC 0.4.6-DEV (internal rev. 8)
Writing library : x264 core 112
Encoding settings : cabac=0 / ref=3 / deblock=1:0:0 / analyse=0x1:0x11 / me=umh / subme=6 / psy=1 / psy_rd=0.80:0.20 / mixed_ref=1 / me_range=24 / chroma_me=1 / trellis=1 / 8x8dct=0 / cqm=0 / deadzone=21,11 / fast_pskip=0 / chroma_qp_offset=-3 / threads=24 / sliced_threads=0 / nr=0 / decimate=0 / interlaced=0 / constrained_intra=0 / bframes=0 / weightp=0 / keyint=300 / keyint_min=30 / scenecut=40 / intra_refresh=0 / rc_lookahead=40 / rc=cbr / mbtree=0 / bitrate=5500 / ratetol=1.0 / qcomp=0.60 / qpmin=0 / qpmax=51 / qpstep=4 / vbv_maxrate=5500 / vbv_bufsize=14475 / nal_hrd=none / ip_ratio=1.40 / aq=2:1.00
Encoded date : UTC 2013-01-19 12:11:04
Tagged date : UTC 2013-01-19 12:11:16
Audio
ID : 101
Format : AAC
Format/Info : Advanced Audio Codec
Format profile : LC
Codec ID : 40
Duration : 19mn 39s
Bit rate mode : Variable
Bit rate : 128 Kbps
Maximum bit rate : 152 Kbps
Channel(s) : 2 channels
Channel positions : Front: L R
Sampling rate : 44.1 KHz
Frame rate : 43.066 fps (1024 spf)
Compression mode : Lossy
Stream size : 18.0 MiB (2%)
Title : LC-AAC Stereo
Encoded date : UTC 2013-01-19 12:11:09
Tagged date : UTC 2013-01-19 12:11:16
Other #1
ID : 2
Type : Object description
Format : System
Codec ID : 1
Duration : 1s 0ms
Encoded date : UTC 2013-01-19 12:11:14
Tagged date : UTC 2013-01-19 12:11:16
Other #2
ID : 1
Type : Scene description
Format : System Core
Codec ID : 2
Duration : 1s 0ms
Encoded date : UTC 2013-01-19 12:11:14
Tagged date : UTC 2013-01-19 12:11:16
Other #3
ID : 65736
Type : Hint
Format : RTP
Codec ID : rtp
Duration : 19mn 39s
Encoded date : UTC 2013-01-19 12:11:14
Tagged date : UTC 2013-01-19 12:11:16
Other #4
ID : 65636
Type : Hint
Format : RTP
Codec ID : rtp
Duration : 19mn 39s
Encoded date : UTC 2013-01-19 12:11:16
Tagged date : UTC 2013-01-19 12:11:16
Bit rate mode : VBR


Внимание! AdBlock блокирует показ скриншотов, все вопросы к разработчикам )))
Трекер:  [ 07-Мар-2016 16:30 ]

  

Скачать .torrent

Размер .torrent файла 31 KB


Размер: 5.64 GB
Хэш (hash) релиза: 86f7e89705c9fff04b13a3895f36991fc1e4790b

Еще никто не оставлял запись к записи скачать торрент Busted Butts 2 Взломаные задницы 2 . Будь первым!

!Обратная связь