Скачать порно через торрент Calling all asses Вызываю все задницы UnionPeer.org бесплатно онлайн HD качество

Скачать новое порно 2015, 2014 новинки через торрент UnionPeer.org

Порно торрент бесплатно ЮнионПир.орг

Статистика раздачи
Размер:  6.64 GB   |    Зарегистрирован:  5 лет 6 месяцев   |    .torrent скачан:  138 раз   |   
Раздают:  1  
 

Скачать Calling all asses / Вызываю все задницы (Combat Zone) [2012 г., One On One, Big Boobs, Facial Cumshot, Lingerie, Creampie, Swallow, Titty Fuck, Bubble Butt, WEB-DL, 720p] через torrent

 
 
Автор Сообщение

Galfimbul

avatar Galfimbul


Calling all asses / Вызываю все задницы

Год производства: 2012 г.
Страна: USA
Жанр: One On One, Big Boobs, Facial Cumshot, Lingerie, Creampie, Swallow, Titty Fuck, Bubble Butt
Продолжительность: 02:43:00

Студия: Combat Zone

Язык: English
В ролях: Reena Sky, Tristyn Kennedy, Casey Cumz, Madison Rose

Описание: You may call it what you like, butt, ass, booty, junk in dah trunk, ba-donk-a-donk, rear end, caboose, derriere, rump or buttocks and in the end the only thing that matters is, how much cushion is there for the pushin''? Some chics will let their lovers poke them up the ass for various reasons however, the best reason for a guy is, it''s usually tighter that their vagina!

Доп. информация: Split scenes. HD release date 11-02-2013

Тип HD видео: 720p
Качество видео: WEB-DL
Формат видео: MP4
Видео: AVC, 1280x720, 39fps, VBR 5500-9137kbps
Аудио: AAC, 44100khz, Stereo, VBR 106-129kbps
General
Complete name : G:\!Treker!\Calling all asses\calling-all-asses-scene1.720p.mp4
Format : MPEG-4
Format profile : Base Media / Version 2
Codec ID : mp42 (isom/avc1/mp42/3gp5)
File size : 2.01 GiB
Duration : 49mn 37s
Overall bit rate mode : Variable
Overall bit rate : 5 787 Kbps
Movie name : calling-all-asses-scene1
Encoded date : UTC 2013-01-23 22:03:08
Tagged date : UTC 2013-01-23 22:03:08
Comment : VideosZ.com
Video
ID : 201
Format : AVC
Format/Info : Advanced Video Codec
Format profile : Baseline@L4
Format settings, CABAC : No
Format settings, ReFrames : 3 frames
Codec ID : avc1
Codec ID/Info : Advanced Video Coding
Duration : 49mn 37s
Bit rate : 5 500 Kbps
Maximum bit rate : 7 836 Kbps
Width : 1 280 pixels
Height : 720 pixels
Display aspect ratio : 16:9
Frame rate mode : Constant
Frame rate : 30.000 fps
Color space : YUV
Chroma subsampling : 4:2:0
Bit depth : 8 bits
Scan type : Progressive
Bits/(Pixel*Frame) : 0.199
Stream size : 1.90 GiB (95%)
Title : /home/vz/encoder/tmp/HD-calling-all-asses-scene1.mp4.h264 - Imported with GPAC 0.4.6-DEV (internal rev. 8)
Writing library : x264 core 112
Encoding settings : cabac=0 / ref=3 / deblock=1:0:0 / analyse=0x1:0x11 / me=umh / subme=6 / psy=1 / psy_rd=0.80:0.20 / mixed_ref=1 / me_range=24 / chroma_me=1 / trellis=1 / 8x8dct=0 / cqm=0 / deadzone=21,11 / fast_pskip=0 / chroma_qp_offset=-3 / threads=24 / sliced_threads=0 / nr=0 / decimate=0 / interlaced=0 / constrained_intra=0 / bframes=0 / weightp=0 / keyint=300 / keyint_min=30 / scenecut=40 / intra_refresh=0 / rc_lookahead=40 / rc=cbr / mbtree=0 / bitrate=5500 / ratetol=1.0 / qcomp=0.60 / qpmin=0 / qpmax=51 / qpstep=4 / vbv_maxrate=5500 / vbv_bufsize=14475 / nal_hrd=none / ip_ratio=1.40 / aq=2:1.00
Encoded date : UTC 2013-01-23 22:03:08
Tagged date : UTC 2013-01-23 22:03:42
Audio
ID : 101
Format : AAC
Format/Info : Advanced Audio Codec
Format profile : LC
Codec ID : 40
Duration : 49mn 37s
Bit rate mode : Variable
Bit rate : 105 Kbps
Maximum bit rate : 127 Kbps
Channel(s) : 2 channels
Channel positions : Front: L R
Sampling rate : 44.1 KHz
Frame rate : 43.066 fps (1024 spf)
Compression mode : Lossy
Stream size : 37.4 MiB (2%)
Title : LC-AAC Stereo
Encoded date : UTC 2013-01-23 22:03:23
Tagged date : UTC 2013-01-23 22:03:42
Other #1
ID : 2
Type : Object description
Format : System
Codec ID : 1
Duration : 1s 0ms
Encoded date : UTC 2013-01-23 22:03:38
Tagged date : UTC 2013-01-23 22:03:42
Other #2
ID : 1
Type : Scene description
Format : System Core
Codec ID : 2
Duration : 1s 0ms
Encoded date : UTC 2013-01-23 22:03:38
Tagged date : UTC 2013-01-23 22:03:42
Other #3
ID : 65736
Type : Hint
Format : RTP
Codec ID : rtp
Duration : 49mn 37s
Encoded date : UTC 2013-01-23 22:03:38
Tagged date : UTC 2013-01-23 22:03:42
Other #4
ID : 65636
Type : Hint
Format : RTP
Codec ID : rtp
Duration : 49mn 37s
Encoded date : UTC 2013-01-23 22:03:41
Tagged date : UTC 2013-01-23 22:03:42
Bit rate mode : VBR

General
Complete name : G:\!Treker!\Calling all asses\calling-all-asses-scene2.720p.mp4
Format : MPEG-4
Format profile : Base Media / Version 2
Codec ID : mp42 (isom/avc1/mp42/3gp5)
File size : 1.47 GiB
Duration : 36mn 18s
Overall bit rate mode : Variable
Overall bit rate : 5 783 Kbps
Movie name : calling-all-asses-scene2
Encoded date : UTC 2013-01-23 21:30:22
Tagged date : UTC 2013-01-23 21:30:22
Comment : VideosZ.com
Video
ID : 201
Format : AVC
Format/Info : Advanced Video Codec
Format profile : Baseline@L4
Format settings, CABAC : No
Format settings, ReFrames : 3 frames
Codec ID : avc1
Codec ID/Info : Advanced Video Coding
Duration : 36mn 18s
Bit rate : 5 500 Kbps
Maximum bit rate : 8 223 Kbps
Width : 1 280 pixels
Height : 720 pixels
Display aspect ratio : 16:9
Frame rate mode : Constant
Frame rate : 30.000 fps
Color space : YUV
Chroma subsampling : 4:2:0
Bit depth : 8 bits
Scan type : Progressive
Bits/(Pixel*Frame) : 0.199
Stream size : 1.39 GiB (95%)
Title : /home/vz/encoder/tmp/HD-calling-all-asses-scene2.mp4.h264 - Imported with GPAC 0.4.6-DEV (internal rev. 8)
Writing library : x264 core 112
Encoding settings : cabac=0 / ref=3 / deblock=1:0:0 / analyse=0x1:0x11 / me=umh / subme=6 / psy=1 / psy_rd=0.80:0.20 / mixed_ref=1 / me_range=24 / chroma_me=1 / trellis=1 / 8x8dct=0 / cqm=0 / deadzone=21,11 / fast_pskip=0 / chroma_qp_offset=-3 / threads=24 / sliced_threads=0 / nr=0 / decimate=0 / interlaced=0 / constrained_intra=0 / bframes=0 / weightp=0 / keyint=300 / keyint_min=30 / scenecut=40 / intra_refresh=0 / rc_lookahead=40 / rc=cbr / mbtree=0 / bitrate=5500 / ratetol=1.0 / qcomp=0.60 / qpmin=0 / qpmax=51 / qpstep=4 / vbv_maxrate=5500 / vbv_bufsize=14475 / nal_hrd=none / ip_ratio=1.40 / aq=2:1.00
Encoded date : UTC 2013-01-23 21:30:22
Tagged date : UTC 2013-01-23 21:30:47
Audio
ID : 101
Format : AAC
Format/Info : Advanced Audio Codec
Format profile : LC
Codec ID : 40
Duration : 36mn 18s
Bit rate mode : Variable
Bit rate : 103 Kbps
Maximum bit rate : 128 Kbps
Channel(s) : 2 channels
Channel positions : Front: L R
Sampling rate : 44.1 KHz
Frame rate : 43.066 fps (1024 spf)
Compression mode : Lossy
Stream size : 26.7 MiB (2%)
Title : LC-AAC Stereo
Encoded date : UTC 2013-01-23 21:30:32
Tagged date : UTC 2013-01-23 21:30:47
Other #1
ID : 2
Type : Object description
Format : System
Codec ID : 1
Duration : 1s 0ms
Encoded date : UTC 2013-01-23 21:30:42
Tagged date : UTC 2013-01-23 21:30:47
Other #2
ID : 1
Type : Scene description
Format : System Core
Codec ID : 2
Duration : 1s 0ms
Encoded date : UTC 2013-01-23 21:30:42
Tagged date : UTC 2013-01-23 21:30:47
Other #3
ID : 65736
Type : Hint
Format : RTP
Codec ID : rtp
Duration : 36mn 18s
Encoded date : UTC 2013-01-23 21:30:42
Tagged date : UTC 2013-01-23 21:30:47
Other #4
ID : 65636
Type : Hint
Format : RTP
Codec ID : rtp
Duration : 36mn 18s
Encoded date : UTC 2013-01-23 21:30:46
Tagged date : UTC 2013-01-23 21:30:47
Bit rate mode : VBR

General
Complete name : G:\!Treker!\Calling all asses\calling-all-asses-scene3.720p.mp4
Format : MPEG-4
Format profile : Base Media / Version 2
Codec ID : mp42 (isom/avc1/mp42/3gp5)
File size : 1.63 GiB
Duration : 40mn 12s
Overall bit rate mode : Variable
Overall bit rate : 5 787 Kbps
Movie name : calling-all-asses-scene3
Encoded date : UTC 2013-01-23 18:13:59
Tagged date : UTC 2013-01-23 18:13:59
Comment : VideosZ.com
Video
ID : 201
Format : AVC
Format/Info : Advanced Video Codec
Format profile : Baseline@L4
Format settings, CABAC : No
Format settings, ReFrames : 3 frames
Codec ID : avc1
Codec ID/Info : Advanced Video Coding
Duration : 40mn 12s
Bit rate : 5 500 Kbps
Maximum bit rate : 9 137 Kbps
Width : 1 280 pixels
Height : 720 pixels
Display aspect ratio : 16:9
Frame rate mode : Constant
Frame rate : 30.000 fps
Color space : YUV
Chroma subsampling : 4:2:0
Bit depth : 8 bits
Scan type : Progressive
Bits/(Pixel*Frame) : 0.199
Stream size : 1.54 GiB (95%)
Title : /home/vz/encoder/tmp/HD-calling-all-asses-scene3.mp4.h264 - Imported with GPAC 0.4.6-DEV (internal rev. 8)
Writing library : x264 core 112
Encoding settings : cabac=0 / ref=3 / deblock=1:0:0 / analyse=0x1:0x11 / me=umh / subme=6 / psy=1 / psy_rd=0.80:0.20 / mixed_ref=1 / me_range=24 / chroma_me=1 / trellis=1 / 8x8dct=0 / cqm=0 / deadzone=21,11 / fast_pskip=0 / chroma_qp_offset=-3 / threads=24 / sliced_threads=0 / nr=0 / decimate=0 / interlaced=0 / constrained_intra=0 / bframes=0 / weightp=0 / keyint=300 / keyint_min=30 / scenecut=40 / intra_refresh=0 / rc_lookahead=40 / rc=cbr / mbtree=0 / bitrate=5500 / ratetol=1.0 / qcomp=0.60 / qpmin=0 / qpmax=51 / qpstep=4 / vbv_maxrate=5500 / vbv_bufsize=14475 / nal_hrd=none / ip_ratio=1.40 / aq=2:1.00
Encoded date : UTC 2013-01-23 18:13:59
Tagged date : UTC 2013-01-23 18:14:23
Audio
ID : 101
Format : AAC
Format/Info : Advanced Audio Codec
Format profile : LC
Codec ID : 40
Duration : 40mn 12s
Bit rate mode : Variable
Bit rate : 106 Kbps
Maximum bit rate : 129 Kbps
Channel(s) : 2 channels
Channel positions : Front: L R
Sampling rate : 44.1 KHz
Frame rate : 43.066 fps (1024 spf)
Compression mode : Lossy
Stream size : 30.5 MiB (2%)
Title : LC-AAC Stereo
Encoded date : UTC 2013-01-23 18:14:08
Tagged date : UTC 2013-01-23 18:14:23
Other #1
ID : 2
Type : Object description
Format : System
Codec ID : 1
Duration : 1s 0ms
Encoded date : UTC 2013-01-23 18:14:19
Tagged date : UTC 2013-01-23 18:14:23
Other #2
ID : 1
Type : Scene description
Format : System Core
Codec ID : 2
Duration : 1s 0ms
Encoded date : UTC 2013-01-23 18:14:19
Tagged date : UTC 2013-01-23 18:14:23
Other #3
ID : 65736
Type : Hint
Format : RTP
Codec ID : rtp
Duration : 40mn 12s
Encoded date : UTC 2013-01-23 18:14:19
Tagged date : UTC 2013-01-23 18:14:23
Other #4
ID : 65636
Type : Hint
Format : RTP
Codec ID : rtp
Duration : 40mn 12s
Encoded date : UTC 2013-01-23 18:14:22
Tagged date : UTC 2013-01-23 18:14:23
Bit rate mode : VBR

General
Complete name : G:\!Treker!\Calling all asses\calling-all-asses-scene4.720p.mp4
Format : MPEG-4
Format profile : Base Media / Version 2
Codec ID : mp42 (isom/avc1/mp42/3gp5)
File size : 1.54 GiB
Duration : 38mn 5s
Overall bit rate mode : Variable
Overall bit rate : 5 790 Kbps
Movie name : calling-all-asses-scene4
Encoded date : UTC 2013-01-23 18:03:45
Tagged date : UTC 2013-01-23 18:03:45
Comment : VideosZ.com
Video
ID : 201
Format : AVC
Format/Info : Advanced Video Codec
Format profile : Baseline@L4
Format settings, CABAC : No
Format settings, ReFrames : 3 frames
Codec ID : avc1
Codec ID/Info : Advanced Video Coding
Duration : 38mn 5s
Bit rate : 5 500 Kbps
Maximum bit rate : 8 203 Kbps
Width : 1 280 pixels
Height : 720 pixels
Display aspect ratio : 16:9
Frame rate mode : Constant
Frame rate : 30.000 fps
Color space : YUV
Chroma subsampling : 4:2:0
Bit depth : 8 bits
Scan type : Progressive
Bits/(Pixel*Frame) : 0.199
Stream size : 1.46 GiB (95%)
Title : /home/vz/encoder/tmp/HD-calling-all-asses-scene4.mp4.h264 - Imported with GPAC 0.4.6-DEV (internal rev. 8)
Writing library : x264 core 112
Encoding settings : cabac=0 / ref=3 / deblock=1:0:0 / analyse=0x1:0x11 / me=umh / subme=6 / psy=1 / psy_rd=0.80:0.20 / mixed_ref=1 / me_range=24 / chroma_me=1 / trellis=1 / 8x8dct=0 / cqm=0 / deadzone=21,11 / fast_pskip=0 / chroma_qp_offset=-3 / threads=24 / sliced_threads=0 / nr=0 / decimate=0 / interlaced=0 / constrained_intra=0 / bframes=0 / weightp=0 / keyint=300 / keyint_min=30 / scenecut=40 / intra_refresh=0 / rc_lookahead=40 / rc=cbr / mbtree=0 / bitrate=5500 / ratetol=1.0 / qcomp=0.60 / qpmin=0 / qpmax=51 / qpstep=4 / vbv_maxrate=5500 / vbv_bufsize=14475 / nal_hrd=none / ip_ratio=1.40 / aq=2:1.00
Encoded date : UTC 2013-01-23 18:03:45
Tagged date : UTC 2013-01-23 18:04:10
Audio
ID : 101
Format : AAC
Format/Info : Advanced Audio Codec
Format profile : LC
Codec ID : 40
Duration : 38mn 5s
Bit rate mode : Variable
Bit rate : 110 Kbps
Maximum bit rate : 129 Kbps
Channel(s) : 2 channels
Channel positions : Front: L R
Sampling rate : 44.1 KHz
Frame rate : 43.066 fps (1024 spf)
Compression mode : Lossy
Stream size : 29.9 MiB (2%)
Title : LC-AAC Stereo
Encoded date : UTC 2013-01-23 18:03:55
Tagged date : UTC 2013-01-23 18:04:10
Other #1
ID : 2
Type : Object description
Format : System
Codec ID : 1
Duration : 1s 0ms
Encoded date : UTC 2013-01-23 18:04:07
Tagged date : UTC 2013-01-23 18:04:10
Other #2
ID : 1
Type : Scene description
Format : System Core
Codec ID : 2
Duration : 1s 0ms
Encoded date : UTC 2013-01-23 18:04:07
Tagged date : UTC 2013-01-23 18:04:10
Other #3
ID : 65736
Type : Hint
Format : RTP
Codec ID : rtp
Duration : 38mn 5s
Encoded date : UTC 2013-01-23 18:04:07
Tagged date : UTC 2013-01-23 18:04:10
Other #4
ID : 65636
Type : Hint
Format : RTP
Codec ID : rtp
Duration : 38mn 5s
Encoded date : UTC 2013-01-23 18:04:10
Tagged date : UTC 2013-01-23 18:04:10
Bit rate mode : VBR


Внимание! AdBlock блокирует показ скриншотов, все вопросы к разработчикам )))
Трекер:  [ 07-Мар-2016 17:00 ]

  

Скачать .torrent

Размер .torrent файла 36 KB


Размер: 6.64 GB
Хэш (hash) релиза: ea578e210d22ffe1b3f5c8a6e971bdcaa550c2c2

Еще никто не оставлял запись к записи скачать торрент Calling all asses Вызываю все задницы . Будь первым!

!Обратная связь