Скачать порно через торрент Bad Girls Плохие девчёнки UnionPeer.org бесплатно онлайн HD качество

Скачать новое порно 2015, 2014 новинки через торрент UnionPeer.org

Порно торрент бесплатно ЮнионПир.орг

Статистика раздачи
Размер:  1.34 GB   |    Зарегистрирован:  7 лет 11 месяцев   |    .torrent скачан:  1425 раз   |   
Раздают:  2  
   
 
Автор Сообщение

Galfimbul

avatar Galfimbul


Bad Girls / Плохие девчёнки

Год производства: 1981 г.
Страна: USA
Жанр: Classic, Feature
Продолжительность: 01:22:00
Язык: Английский

Режиссер: David J. Frazer / Svetlana
Студия: VCX

В ролях: Anna Ventura, Desiree West, Donna Ferguson, Erica Johnston, Jennifer Wright, Lee Caroll, Lenora Bruce, Lisa Moore, Pia Snow, Sylvia Benedict, Victoria Knoll, Leslie Winston, Kevin James (Gene DuQuene), Ron Jeremy, Michael Snow, Randy West

Описание: Когда они были хорошими - они были очень хорошими. Но когда они стали плохими, они стали лучшими! Четыре потрясающе красивых девушки, никогда не появлявшихся на экранах - в этом провокационном фильме.

Доп. информация: IAFD
В 2005 фильм был включен в "AVN 500 Greatest Adult Films"

[url=...985644]DVD[/url]
Спасибо - antraxruss

Качество видео: DVDRip-AVC
Формат видео: MKV
Видео: x264 | 688x520 | 23,976 кадра/сек | 2108 Кбит/сек | 0.246
Аудио: AC-3 | 48,0 КГц | 2 канала | 192 Кбит/сек
Формат : Matroska
Версия формата : Version 2
Размер файла : 1,34 Гбайт
Продолжительность : 1 ч. 22 м.
Общий поток : 2347 Кбит/сек
Дата кодирования : UTC 2016-03-16 22:33:18
Программа кодирования : mkvmerge v7.9.0 (''Birds'') 32bit
Библиотека кодирования : libebml v1.3.1 + libmatroska v1.4.2
Обложка : Yes
Attachments : cover.jpg

Видео
Идентификатор : 1
Формат : AVC
Формат/Информация : Advanced Video Codec
Профиль формата : [email protected]
Параметр CABAC формата : Да
Параметр ReFrames формата : 8 кадров
Идентификатор кодека : V_MPEG4/ISO/AVC
Продолжительность : 1 ч. 22 м.
Битрейт : 2108 Кбит/сек
Ширина : 688 пикселей
Высота : 520 пикселей
Соотношение сторон : 4:3
Режим частоты кадров : Постоянный
Частота кадров : 23,976 (24000/1001) кадра/сек
Цветовое пространство : YUV
Субдискретизация насыщенности : 4:2:0
Битовая глубина : 8 бит
Тип развёртки : Прогрессивная
Бит/(Пиксели*Кадры) : 0.246
Размер потока : 1,21 Гбайт (90%)
Библиотека кодирования : x264 core 148 r2665 a01e339
Настройки программы : cabac=1 / ref=8 / deblock=1:0:0 / analyse=0x3:0x133 / me=umh / subme=9 / psy=1 / psy_rd=0.85:0.15 / mixed_ref=1 / me_range=24 / chroma_me=1 / trellis=2 / 8x8dct=1 / cqm=0 / deadzone=21,11 / fast_pskip=1 / chroma_qp_offset=-3 / threads=4 / lookahead_threads=1 / sliced_threads=0 / nr=0 / decimate=0 / interlaced=0 / bluray_compat=0 / constrained_intra=0 / bframes=5 / b_pyramid=2 / b_adapt=2 / b_bias=0 / direct=1 / weightb=1 / open_gop=0 / weightp=2 / keyint=250 / keyint_min=23 / scenecut=40 / intra_refresh=0 / rc=crf / mbtree=0 / crf=17.5 / qcomp=0.70 / qpmin=0 / qpmax=69 / qpstep=4 / ip_ratio=1.40 / pb_ratio=1.30 / aq=1:1.00
Язык : English
Default : Да
Forced : Нет
Цветовой диапазон : Limited
Коэффициенты матрицы : BT.601

Аудио
Идентификатор : 2
Формат : AC-3
Формат/Информация : Audio Coding 3
Расширение режима : CM (complete main)
Параметр Endianness формата : Big
Идентификатор кодека : A_AC3
Продолжительность : 1 ч. 22 м.
Вид битрейта : Постоянный
Битрейт : 192 Кбит/сек
Каналы : 2 канала
Расположение каналов : Front: L R
Частота : 48,0 КГц
Частота кадров : 31,250 кадров/сек (1536 spf)
Метод сжатия : С потерями
Размер потока : 113 Мбайт (8%)
Язык : English
Default : Да
Forced : Нет

Меню
00:03:40.000 : :Scene 1. Victoria Knoll
00:18:42.000 : :Scene 2. Lee Caroll, Leslie Winston
00:20:30.000 : :Scene 3. Lenora Bruce
00:26:58.000 : :Scene 4. Anna Ventura, Pia Snow
00:37:57.000 : :Scene 5. Lenora Bruce
00:49:34.000 : :Scene 6. Copper Penny
00:53:28.000 : :Scene 7. Erica Johnston
00:55:02.000 : :Scene 8. Anna Ventura
01:10:50.000 : :Scene 9. Pia Snow
00:13:54.000 : :Scene 10. Victoria Knoll
01:14:43.000 : :Scene 11. Anna Ventura & Sylvia Benedict
01:16:12.000 : :Scene 12. Lenora Bruce
01:17:46.000 : :Scene 13. Lisa Lang & Lisa Moore & Pia Snow
what?
[url]...1576968[/url]
[url]...431822[/url]


Внимание! AdBlock блокирует показ скриншотов, все вопросы к разработчикам )))
Трекер:  [ 17-Мар-2016 14:00 ]

  

Скачать .torrent

Размер .torrent файла 14 KB


Размер: 1.34 GB
Хэш (hash) релиза: 05d3b23aef3fdb96e71a6468f26386fe39899e69

Торренты, похожие на Bad Girls Плохие девчёнки скачать торрент

Форум Название Автор Размер S L Добавлен
Лесбо-фильмы / All Girl & Solo ·· Girls Gone Wild: Bad Girls 2 / Самые Сексуальные Моменты : Плохие девчёнки 2 (Mantra Films ) [12.02.2008 г., Erotic Girls Girls, DVDRip] Galfimbul 732114138698 MB 0 0 1363090953

15:22

12-Мар-13

Фильмы с сюжетом / Feature & Vignettes ·%· Bad Girls Ink / Плохие девченки (Marcus London, Penthouse) [2008 г., Big Boobs, Creampie, Facial Cumshot, Fishnet, Lingerie, WEB-DL, 540p] (Split Scenes) (Lily Paige, Sarah Jessie, Mya Nichole, Nadia Styles, Roxy DeVille) Galfimbul 15792183231.47 GB 0 0 1568064737

00:32

10-Сен-19

Этнические фильмы / Ethnic-Themed ·· [WDBC] Плохие чёрные девчёнки 14 / Black Bad Girls 14 (David Christopher) [2003 г., XXX, DVDRip] Galfimbul 727588864694 MB 0 0 1370093034

16:23

1-Июн-13

Фильмы с сюжетом / Feature & Vignettes ·· Bad Girls, Ink / Плохие девченки (Marcus London / Penthouse) [2008 г., All Sex, Vignettes, DVDRip](Новинка!) spider91 734312448700 MB 0 0 1364313690

19:01

26-Мар-13

Фото и журналы / Photos & Magazines ·· Просто плохая девчёнка / Bad Girl [Amateur, solo, hardcore] [3686х2016, 2948х2155, 2304х1670, 55 фото] Galfimbul 122810846117 MB 0 0 1336936320

22:12

13-Май-12

Этнические фильмы / Ethnic-Themed ·· [WDBC] Плохие чёрные девчёнки #21 / Bad Black Girls #21 (B.B.G. #21) (David "Pussyman" Christopher / Legend) [2005 г., Erotic / All Sex / xXx / Black Girls, DVDRip] Galfimbul 947394868904 MB 1 1 1370106726

20:12

1-Июн-13

Этнические фильмы / Ethnic-Themed ·· [WDBC] Плохие чёрные девчёнки #22 / Bad Black Girls #22 (B.B.G. #22) (David "Pussyman" Christopher / Legend) [2006 г., Erotic, All Sex, xXx, Black Girls, DVDRip] Galfimbul 733052928699 MB 0 0 1370090600

15:43

1-Июн-13

Этнические фильмы / Ethnic-Themed ·· [WDBC] Плохие чёрные девчёнки #20 / Bad Black Girls #20 (B.B.G. #20) (David "Pussyman" Christopher / Legend) [2005 г., All Sex, Black Girls, DVDRip] Galfimbul 672454656641 MB 0 0 1370086485

14:34

1-Июн-13

Этнические фильмы / Ethnic-Themed ·· [WDBC] Плохие чёрные девчёнки 11 / Bad Black Girls 11 (David Pussyman Christopher) [2002 г., Interracial Big Butt Black All Sex, DVDRip] Galfimbul 735220143701 MB 0 0 1370095450

17:04

1-Июн-13

Этнические фильмы / Ethnic-Themed ·· [WDBC] Плохие чёрные девчёнки 9 / Bad Black Girls 9 (David Pussyman Christopher) [2002 г., XXX Black, VHSRip] Galfimbul 775206635739 MB 0 0 1370090433

15:40

1-Июн-13

Этнические фильмы / Ethnic-Themed ·· [WDBC] Плохие чёрные девчёнки #17 / Bad Black Girls #17 (B.B.G. #17) (David "Pussyman" Christopher") [2003 г., xXx / Erotic, DVDRip] Galfimbul 813284938776 MB 0 0 1370086474

14:34

1-Июн-13

Еще никто не оставлял запись к записи скачать торрент Bad Girls Плохие девчёнки . Будь первым!

!Обратная связь