Скачать порно через торрент Not Married With Children XXX Не Женаты С Детьми ХХХ UnionPeer.org бесплатно онлайн HD качество

Скачать новое порно 2015, 2014 новинки через торрент UnionPeer.org

Порно торрент бесплатно ЮнионПир.орг

Статистика раздачи
Размер:  2.25 GB   |    Зарегистрирован:  11 лет   |    .torrent скачан:  956 раз   |   
Раздают:  1  
 

Скачать Not Married With Children XXX / Не Женаты С Детьми ХХХ (Will Ryder / Hustler) [2009 г., Comedy, Feature, Spoofs, DVDRip-AVC] через torrent

 
 
Автор Сообщение

Galfimbul

avatar Galfimbul


Not Married With Children XXX / Не Женаты С Детьми ХХХ


Год производства: 2009 г. Страна: USA Жанр: Comedy, Feature, Spoofs
Продолжительность: 02:13:39 Язык: Английский
Режиссер: Hustler Студия: Will Ryder
В ролях:
Kagney Linn Karter, Brittany O' Connell, India Summer, Madison Scott, Brooke Belle, Emy Reyes, Allyssa Hall, Kora Cummings, Peyton Leigh, Kimber James
Описание: | IMDB |
Al fears his job is in jeopardy so Kelly gets involved in a sexually explicit blackmail scheme to get his co-worker fired!
Gorgeous tits, ass and pussy abound in the Bundy household as Peg, Kelly, Al, Bud, Marcy and Steve can't stop fucking in this filthy spoof of the classic TV show!

Качество видео: DVDRip-AVC Формат видео: MKV
Видео кодек: AVC Аудио кодек: AC-3
Видео: AVC | 4/3 | 688x480 | 25.000 fps | 2 201 Kbps
Аудио: AC-3 | 48.0 KHz | 2ch | 160 Kbps

Код:

General
Complete name                    : C:\unionpeer.org\Not Married With Children\Not.married.with.children.mkv
Format                           : Matroska
File size                        : 2.25 GiB
Duration                         : 2h 13mn
Overall bit rate                 : 2 409 Kbps
Movie name                       : http://baza.sytes.net/
Encoded date                     : UTC 2010-02-24 17:04:09
Writing application              : VirtualDubModRus 1.5.10.2 (build 2542/release)
Writing library                  : libebml-0.7.5 & libmatroska-0.7.7

Video
ID                               : 1
Format                           : AVC
Format/Info                      : Advanced Video Codec
Format profile                   : High@L3.1
Format settings, CABAC           : Yes
Format settings, ReFrames        : 2 frames
Codec ID                         : H264
Duration                         : 2h 13mn
Bit rate                         : 2 201 Kbps
Nominal bit rate                 : 2 237 Kbps
Width                            : 688 pixels
Height                           : 480 pixels
Display aspect ratio             : 4:3
Original display aspect ratio    : 1.433
Frame rate                       : 25.000 fps
Resolution                       : 8 bits
Colorimetry                      : 4:2:0
Scan type                        : Progressive
Bits/(Pixel*Frame)               : 0.267
Stream size                      : 2.06 GiB (91%)
Writing library                  : x264 core 1679594380Nov  3 2009
Encoding settings                : cabac=1 / ref=1 / deblock=0:0:0 / analyse=0x3:0x113 / me=hex / subme=5 / psy=1 / psy_rd=0.0:0.0 / mixed_ref=0 / me_range=16 / chroma_me=1 / trellis=0 / 8x8dct=1 / cqm=0 / deadzone=21,11 / chroma_qp_offset=0 / threads=1 / nr=0 / decimate=1 / mbaff=0 / bframes=3 / b_pyramid=0 / b_adapt=1 / b_bias=0 / direct=1 / wpredb=1 / keyint=250 / keyint_min=1 / scenecut=40 / rc_lookahead=40 / rc=abr / mbtree=1 / bitrate=2237 / ratetol=1.0 / qcomp=0.50 / qpmin=2 / qpmax=31 / qpstep=4 / ip_ratio=1.40 / aq=1:0.30

Audio
ID                               : 2
Format                           : AC-3
Format/Info                      : Audio Coding 3
Codec ID                         : A_AC3
Duration                         : 2h 13mn
Bit rate mode                    : Constant
Bit rate                         : 160 Kbps
Channel(s)                       : 2 channels
Channel positions                : L R
Sampling rate                    : 48.0 KHz
Stream size                      : 153 MiB (7%)


Внимание! AdBlock блокирует показ скриншотов, все вопросы к разработчикам )))
Трекер:  [ 03-Сен-2011 21:35 ]

  

Скачать .torrent

Размер .torrent файла 11 KB


Размер: 2.25 GB
Хэш (hash) релиза: 6cd7029937a9c0b5a055527178d1ce8a13b53e17

Торренты, похожие на Not Married With Children XXX Не Женаты С Детьми ХХХ скачать торрент

Форум Название Автор Размер S L Добавлен
Фильмы с сюжетом / Feature & Vignettes ·· Not Married With Children XXX / Не Женаты С Детьми ХХХ (Will Ryder / Hustler) [2009 г., Comedy, Feature, Spoofs, WEB-DL, 720p] Galfimbul 38496742283.59 GB 0 0 1446658736

20:38

4-Ноя-15

Фильмы с сюжетом / Feature & Vignettes ·· Not Married With Children XXX / Не Женаты С Детьми ХХХ (Will Ryder / Hustler) [2009 г., Feature, Spoofs, Straight, Comedy.] *(Release Date:Aug 26, 2009) Bot 14869943151.38 GB 0 0 1304708903

22:08

6-Май-11

Еще никто не оставлял запись к записи скачать торрент Not Married With Children XXX Не Женаты С Детьми ХХХ . Будь первым!

!Обратная связь