Скачать порно через торрент Chasey Loves Rocco Чейси Любит Рокко UnionPeer.org бесплатно онлайн HD качество

Скачать новое порно 2015, 2014 новинки через торрент UnionPeer.org

Порно торрент бесплатно ЮнионПир.орг

Статистика раздачи
Размер:  430 MB   |    Зарегистрирован:  11 лет   |    .torrent скачан:  367 раз   |   
Раздают:  1  
 

Скачать Chasey Loves Rocco / Чейси Любит Рокко (Ralph Parfait, Vivid) [1998 г., Feature, Couples, VHSRip] через torrent

 
 
Автор Сообщение

bot

avatar bot


Chasey Loves Rocco / Чейси Любит Рокко

Год производства: 1998 г.
Страна: США
Жанр: Feature, Couples
Продолжительность: 01:11:48
Язык: Английский

Режиссер: Ralph Parfait
Студия: Vivid

В ролях: Jeanna Fine, Roxanne Hall, Chasey Lain, Marc Wallice, Rocco Siffredi, Bobby Vitale

Описание: Rocco has just arrived in Hollywood with a lot of money and no idea what to do with it. But that's okay. Chasey can help. But not if Marc Wallice gets there first. (He's a sleazy Hollywood producer who's just out to con the unsuspecting Rocco.) All in all, it's one of those movie-within-a-movie movies. The only difference is it's Chasey and Rocco. Chasey Loves Rocco. Grips will grip. Directors will yell. Electricians will connect. Sparks will fly.

http://www.adultdvdempire.com/2885/chasey-loves-rocco-porn-movies.html

Формат видео: FLV
Видео кодек: Flash
Аудио кодек: MP3
Видео: Flash Video 4 640x480
Аудио: MPEG Audio Layer 3 44100Hz mono 80kbps
Format : Flash Video
File size : 430 MiB
Duration : 1h 11mn
Overall bit rate : 837 Kbps
Tagging application : Yet Another Metadata Injector for FLV - Version 1.4

Video
Format : VP6
Duration : 1h 11mn
Bit rate : 731 Kbps
Width : 640 pixels
Height : 480 pixels
Display aspect ratio : 4:3
Frame rate mode : Constant
Frame rate : 29.000 fps
Bits/(Pixel*Frame) : 0.082
Stream size : 386 MiB (90%)

Audio
Format : MPEG Audio
Format version : Version 1
Format profile : Layer 3
Duration : 1h 11mn
Bit rate mode : Constant
Bit rate : 80.0 Kbps
Channel(s) : 1 channel
Sampling rate : 44.1 KHz
Bit depth : 16 bits
Stream size : 42.9 MiB (10%)
Не забываем говорить спасибо - вам не сложно, а мне приятно!

Внимание! AdBlock блокирует показ скриншотов, все вопросы к разработчикам )))
Трекер:  [ 29-Июл-2011 20:23 ]

  

Скачать .torrent

Размер .torrent файла 17 KB


Размер: 430 MB
Хэш (hash) релиза: 6f3a2d0025fc721757547fdd2ca4a15b84084471

Торренты, похожие на Chasey Loves Rocco Чейси Любит Рокко скачать торрент

Форум Название Автор Размер S L Добавлен
Фильмы с сюжетом / Feature & Vignettes ·· Chasey Loves Rocco / Чейси любит Рокко (Toni English, Vivid) [1996 г., Feature, Couples, DVDRip] Chasey Lain, Jeanna Fine, Roxanne Hall etc dnickn 736755204703 MB 0 0 1311448315

22:11

23-Июл-11

Еще никто не оставлял запись к записи скачать торрент Chasey Loves Rocco Чейси Любит Рокко . Будь первым!

!Обратная связь