Скачать через торрент Пустынная бухта Hollow Creek Фильм бесплатно в хорошем качестве torrent

Скачивайте на UnionPeer.org фильмы через торрент без регистрации. Новинки кино в хорошем качестве через торрент. На UnionPeer.org можно скачать через торрент фильмы 2014 и 2015 годов. Самые новые фильмы.

Скачать торрент Пустынная бухта Hollow Creek бесплатно через .torrent фильм мультфильм сериал

Статистика раздачи
Размер:  3.74 GB   |    Зарегистрирован:  2 года 6 месяцев   |    .torrent скачан:  126 раз   |   
Раздают:  1  
   
загрузка...
 
Автор Сообщение

Galfimbul

avatar Galfimbul


Название: Пустынная бухта
Оригинальное название: Hollow Creek
Год выпуска: 2016
Жанр: ужасы, триллер, криминал, детектив
Режиссер: Guisela Moro
В ролях: Стив Дарон, Guisela Moro, Берт Рейнолдс, David Ausem, Tony Reichert, Элин Дарне, Стив Альбертс, Демия Элифф, Sharon Bleau, Anthony Boggs

О фильме: В поиске вдохновения писатель и его иллюстратор отправляются в неболдьшой домик, что в горах. Там с ними приключается покрытая тайнами история...



Выпущено: США / First Edge Films, Newfoundland Films
Продолжительность: 01:56:27
Озвучивание: Любительское (двухголосое) [Parovoz Production]

Примечание: Релиз без рекламы.

Файл
Формат: MKV
Качество: WEB-DL 720p
Видео: MPEG-4 AVC, 3933 kb/s, 1280x716
Аудио: Russian: AC3, 192 kb/s (2 ch) / English: AC3, 384 kb/s (6 ch)
СУбтитры: English
Format : Matroska
Format version : Version 2
File size : 3.74 GiB
Duration : 1h 56mn
Overall bit rate : 4 600 Kbps
Encoded date : UTC 2016-03-20 13:44:47
Writing application : mkvmerge v7.8.0 ('River Man') 32bit built on Apr 3 2015 12:11:22
Writing library : libebml v1.3.1 + libmatroska v1.4.2

Video
ID : 1
Format : AVC
Format/Info : Advanced Video Codec
Format profile : High@L3.1
Format settings, CABAC : No
Format settings, ReFrames : 2 frames
Codec ID : V_MPEG4/ISO/AVC
Duration : 1h 56mn
Bit rate : 3 933 Kbps
Width : 1 280 pixels
Height : 716 pixels
Display aspect ratio : 16:9
Frame rate mode : Constant
Frame rate : 23.976 fps
Color space : YUV
Chroma subsampling : 4:2:0
Bit depth : 8 bits
Scan type : Progressive
Bits/(Pixel*Frame) : 0.179
Stream size : 3.20 GiB (85%)
Language : English
Default : Yes
Forced : No
Color range : Limited
Color primaries : BT.709
Transfer characteristics : BT.709
Matrix coefficients : BT.709

Audio #1
ID : 2
Format : AC-3
Format/Info : Audio Coding 3
Mode extension : CM (complete main)
Format settings, Endianness : Big
Codec ID : A_AC3
Duration : 1h 56mn
Bit rate mode : Constant
Bit rate : 192 Kbps
Channel(s) : 2 channels
Channel positions : Front: L R
Sampling rate : 48.0 KHz
Bit depth : 16 bits
Compression mode : Lossy
Stream size : 160 MiB (4%)
Language : Russian
Default : Yes
Forced : No

Audio #2
ID : 3
Format : AC-3
Format/Info : Audio Coding 3
Mode extension : CM (complete main)
Format settings, Endianness : Big
Codec ID : A_AC3
Duration : 1h 56mn
Bit rate mode : Constant
Bit rate : 384 Kbps
Channel(s) : 6 channels
Channel positions : Front: L C R, Side: L R, LFE
Sampling rate : 48.0 KHz
Bit depth : 16 bits
Compression mode : Lossy
Stream size : 320 MiB (8%)
Language : English
Default : No
Forced : No

Text
ID : 4
Format : UTF-8
Codec ID : S_TEXT/UTF8
Codec ID/Info : UTF-8 Plain Text
Language : English
Default : No
Forced : No

Menu
00:00:00.000 : en:1
00:10:24.000 : en:2
00:21:27.000 : en:3
00:34:35.000 : en:4
00:45:56.000 : en:5
00:55:09.000 : en:6
01:01:48.000 : en:7
01:12:22.000 : en:8
01:23:49.000 : en:9
01:33:54.000 : en:10
01:44:23.000 : en:11
01:53:06.000 : en:12






Трекер:  [ 20-Мар-2016 17:00 ]

  

Скачать .torrent

Размер .torrent файла 19 KB


Размер: 3.74 GB
Хэш (hash) релиза: 9ad93d25c8d4400279562ca995637e40412c73a8
Подписка на обновления:

Еще никто не оставлял запись к записи скачать торрент Пустынная бухта Hollow Creek . Будь первым!

!Обратная связь