Скачать через торрент Хот Бот Hot Bot Фильм бесплатно в хорошем качестве torrent

Скачивайте на UnionPeer.org фильмы через торрент без регистрации. Новинки кино в хорошем качестве через торрент. На UnionPeer.org можно скачать через торрент фильмы 2014 и 2015 годов. Самые новые фильмы.

Скачать торрент Хот Бот Hot Bot бесплатно через .torrent фильм мультфильм сериал

Статистика раздачи
Размер:  1.46 GB   |    Зарегистрирован:  2 года 6 месяцев   |    .torrent скачан:  291 раз   |   
Раздают:  1  
   
загрузка...
 
Автор Сообщение

Galfimbul

avatar Galfimbul


Хот Бот / Hot Bot
Страна: США
Жанр: Фантастика, комедия
Год выпуска: 2016
Продолжительность: 01:32:00
Перевод: Любительский (двухголосый закадровый) Parovoz Production
Cубтитры: нет

Режиссер: Майкл Полиш / Michael Polish

В ролях: Зак Перлман, Даг Хейли, Синтия Киршнер, Дэвид Шакелфорд, Энтони Андерсон, Дональд Фэйзон, Дэнни Мастерсон, Ларри Миллер, Анджела Кинси, Кирби Блисс Блэнтон...

Описание: Приключения двух ботанов, которые наткнулись на суперсексмодель....

Доп. информация: релиз без рекламы

Сэмпл: http://multi-up.com/1093951

Качество видео: WEB-DLRip Hot.Bot.2016.720p.NF.WEB-DL.x264.DD5.1-FGT
Формат видео: AVI
Видео: 720x304 (2.37:1), 25 fps, XviD build 73 ~2068 kbps avg, 0.38 bit/pixel
Аудио: 48 kHz, AC3 Dolby Digital, 2/0 (L,R) ch, ~192 kbps
ормат : AVI
Формат/Информация : Audio Video Interleave
Размер файла : 1,46 Гбайт
Продолжительность : 1 ч. 32 м.
Общий поток : 2270 Кбит/сек
Программа кодирования : VirtualDubMod 1.5.10.3 (build 2550/release)
Библиотека кодирования : VirtualDubMod build 2550/release

Видео
Идентификатор : 0
Формат : MPEG-4 Visual
Профиль формата : Advanced Simple@L5
Параметр BVOP формата : 1
Параметр QPel формата : Нет
Параметр GMC формата : Без точки перехода
Параметр матрицы формата : Выборочная
Идентификатор кодека : XVID
Идентификатор кодека/Подсказка : XviD
Продолжительность : 1 ч. 32 м.
Битрейт : 2068 Кбит/сек
Ширина : 720 пикселей
Высота : 304 пикселя
Соотношение сторон : 2,35:1
Частота кадров : 25,000 кадров/сек
Цветовое пространство : YUV
Субдискретизация насыщенности : 4:2:0
Битовая глубина : 8 бит
Тип развёртки : Прогрессивная
Метод сжатия : С потерями
Бит/(Пиксели*Кадры) : 0.378
Размер потока : 1,33 Гбайт (91%)
Библиотека кодирования : XviD 73

Аудио
Идентификатор : 1
Формат : AC-3
Формат/Информация : Audio Coding 3
Расширение режима : CM (complete main)
Параметр Endianness формата : Big
Идентификатор кодека : 2000
Продолжительность : 1 ч. 32 м.
Вид битрейта : Постоянный
Битрейт : 192 Кбит/сек
Каналы : 2 канала
Расположение каналов : Front: L R
Частота : 48,0 КГц
Частота кадров : 31,250 кадров/сек (1536 spf)
Метод сжатия : С потерями
Размер потока : 126 Мбайт (8%)
Выравнивание : Разделение по промежуткам
Продолжительность промежутка : 40 мс. (1,00 видеокадр)
Время предзагрузки промежутка : 500 мс.
http://screenshotcomparison.com/comparison/166141/picture:2 <a href="viewtopic.php?t=5193033" class="postLink">...5193033</a>


Трекер:  [ 21-Мар-2016 00:30 ]

  

Скачать .torrent

Размер .torrent файла 15 KB


Размер: 1.46 GB
Хэш (hash) релиза: 7370e46e35570fe75c63896f2d1701eba6e58ec5
Подписка на обновления:

Еще никто не оставлял запись к записи скачать торрент Хот Бот Hot Bot . Будь первым!

!Обратная связь