Скачать через торрент Маленькая мертвая шапочка Little Dead Rotting Hood Фильм бесплатно в хорошем качестве torrent

Скачивайте на UnionPeer.org фильмы через торрент без регистрации. Новинки кино в хорошем качестве через торрент. На UnionPeer.org можно скачать через торрент фильмы 2014 и 2015 годов. Самые новые фильмы.

Скачать торрент Маленькая мертвая шапочка Little Dead Rotting Hood бесплатно через .torrent фильм мультфильм сериал

Статистика раздачи
Размер:  3.39 GB   |    Зарегистрирован:  2 года 6 месяцев   |    .torrent скачан:  169 раз   |   
Раздают:  1  
   
загрузка...
 
Автор Сообщение

Galfimbul

avatar Galfimbul


Название: Маленькая мертвая шапочка
Оригинальное название: Little Dead Rotting Hood
Год выпуска: 2016
Жанр: ужасы
Режиссер: Джаред Кон
В ролях: Эрик Бальфур, Бьянка А. Сантос, Лил Ромео, Патрик Малдун, Хизер Том, Брендан Уэйн, Марина Сиртис, Эми Эргил, Тони Кечэм, Jake T. Getman

О фильме: Жители небольшого городка обнаруживают, что в глубине леса скрывается нечто более опасное, чем волки. Вскоре, начинают умирать животные, а потом люди.



Выпущено: США / Global Asylum
Продолжительность: 01:28:27
Озвучивание: Любительское (двухголосое) [Parovoz Production]

Примечание: Релиз без рекламы.

Файл
Формат: MKV
Качество: BDRip 720p
Видео: MPEG-4 AVC, 4144 kb/s, 1280x720
Аудио: Russian: AC3, 192 kb/s (2 ch) / English: DTS, 1152 kb/s (6 ch)
Format : Matroska
Format version : Version 2
File size : 3.39 GiB
Duration : 1h 28mn
Overall bit rate : 5 488 Kbps
Encoded date : UTC 2016-03-22 15:53:25
Writing application : mkvmerge v7.8.0 ('River Man') 32bit built on Apr 3 2015 12:11:22
Writing library : libebml v1.3.1 + libmatroska v1.4.2

Video
ID : 1
Format : AVC
Format/Info : Advanced Video Codec
Format profile : High@L4.1
Format settings, CABAC : Yes
Format settings, ReFrames : 5 frames
Codec ID : V_MPEG4/ISO/AVC
Duration : 1h 28mn
Bit rate : 4 144 Kbps
Width : 1 280 pixels
Height : 720 pixels
Display aspect ratio : 16:9
Frame rate mode : Constant
Frame rate : 23.976 fps
Color space : YUV
Chroma subsampling : 4:2:0
Bit depth : 8 bits
Scan type : Progressive
Bits/(Pixel*Frame) : 0.188
Stream size : 2.49 GiB (74%)
Writing library : x264 core 148 r2665 a01e339
Encoding settings : cabac=1 / ref=5 / deblock=1:1:1 / analyse=0x3:0x133 / me=umh / subme=8 / psy=1 / psy_rd=1.00:0.00 / mixed_ref=1 / me_range=16 / chroma_me=1 / trellis=1 / 8x8dct=1 / cqm=0 / deadzone=21,11 / fast_pskip=0 / chroma_qp_offset=-2 / threads=12 / lookahead_threads=2 / sliced_threads=0 / nr=0 / decimate=1 / interlaced=0 / bluray_compat=0 / constrained_intra=0 / bframes=3 / b_pyramid=2 / b_adapt=2 / b_bias=0 / direct=3 / weightb=1 / open_gop=0 / weightp=2 / keyint=240 / keyint_min=23 / scenecut=40 / intra_refresh=0 / rc_lookahead=50 / rc=2pass / mbtree=1 / bitrate=4144 / ratetol=1.0 / qcomp=0.60 / qpmin=0 / qpmax=69 / qpstep=4 / cplxblur=20.0 / qblur=0.5 / ip_ratio=1.40 / aq=1:1.00
Language : English
Default : Yes
Forced : No

Audio #1
ID : 2
Format : AC-3
Format/Info : Audio Coding 3
Mode extension : CM (complete main)
Format settings, Endianness : Big
Codec ID : A_AC3
Duration : 1h 28mn
Bit rate mode : Constant
Bit rate : 192 Kbps
Channel(s) : 2 channels
Channel positions : Front: L R
Sampling rate : 48.0 KHz
Bit depth : 16 bits
Compression mode : Lossy
Stream size : 121 MiB (3%)
Language : Russian
Default : Yes
Forced : No

Audio #2
ID : 3
Format : DTS
Format/Info : Digital Theater Systems
Mode : 16
Format settings, Endianness : Big
Codec ID : A_DTS
Duration : 1h 28mn
Bit rate mode : Constant
Bit rate : 1 152 Kbps
Channel(s) : 6 channels
Channel positions : Front: L C R, Side: L R, LFE
Sampling rate : 48.0 KHz
Bit depth : 24 bits
Compression mode : Lossy
Stream size : 729 MiB (21%)
Language : English
Default : No
Forced : No

Menu
00:00:00.000 : en:00:00:00.000
00:09:59.974 : en:00:09:59.974
00:19:59.990 : en:00:19:59.990
00:29:59.965 : en:00:29:59.965
00:39:59.981 : en:00:39:59.981
00:49:59.997 : en:00:49:59.997
00:59:59.971 : en:00:59:59.971
01:09:59.987 : en:01:09:59.987
01:19:59.962 : en:01:19:59.962








Трекер:  [ 22-Мар-2016 20:30 ]

  

Скачать .torrent

Размер .torrent файла 17 KB


Размер: 3.39 GB
Хэш (hash) релиза: db7ee95e8e4009975b76119e7c64d6eceb116732
Подписка на обновления:

Торренты, похожие на Маленькая мертвая шапочка Little Dead Rotting Hood скачать торрент

Форум Название Автор Размер S L Добавлен
Зарубежные фильмы 2016-2018 (Новинки зарубежного кино) ·· Маленькая мертвая шапочка / Little Dead Rotting Hood (Джаред Кон) [2016, ужасы, HDRip] Galfimbul 15600680961.45 GB 0 0 1458652568

16:16

22-Мар-16

Еще никто не оставлял запись к записи скачать торрент Маленькая мертвая шапочка Little Dead Rotting Hood . Будь первым!

!Обратная связь