The 8th Day 8- UnionPeer.org HD

2015, 2014 UnionPeer.org

.

8.33 GB   |    :  11    |    .torrent :  574    |   
1  
   
 

Galfimbul

avatar Galfimbul


The 8th Day / 8-



: 2009 . : USA : Feature, Big Budget :
:
CD1: 02:03:12 | CD2: 02:22:44 | CD3: 01:39:02 | CD4: 02:34:04
: +
: Ren Savant : Adam & Eve
:
Kylie Ireland, Kayden Kross, Bree Olson, Tyler Knight, Tommy Gunn, Aaron Wilcoxxx, Derrick Pierce, Jandi Lin, Krissy Leigh, Poppy Morgan,
Tori Black, Violet Marcell, Darryl Hanah, Evan Stone, Amber Rayne, Cheyne Collins, Sledge Hammer, Trinity Post, Chris Cannon, Jerry
: | IMDB | (4 Disc Set) |
Samantha has awakened--awakened to a recording of her long dead father, and the world she knew is gone. It's now post-burn and only various tribes of proto-humans remain. After witnessing how brutal the emptied out city can be, she is captured and readied for sale. While her captor enjoys himself with a trading post working girl, she is stolen by Mel, a scavenger who fills her in on what has happened and where they are going-to Elysium Fields and its charismatic leader, Prince Amir.

Out in the middle of the desert, the Fields are the one place that still has some rules, some resources and some sense of hope--where people can still come to trade and make some sense out of survival. While there, Samantha is haunted by a countdown that was still active when she awoke in the lab, and Amir tells Samantha that he knows who she is--the daughter of the scientist who caused the burn so many years ago.

Horrifed, Samantha confides to Mel what she's learned. When Mel realizes that Sam has replaced her as Amir's favorite, she betrays her to the Fields, who demands her sacrifice, according to the Prince's own doctrine. As she is being staked out in the desert to die, Samantha's pleas about the countdown fall on soon-to-be-dead ears

2010 AVN Award Nominee for Best Actress - Kimberly Kane.
2010 AVN Award Nominee for Best Actress - Kayden Kross.
2010 AVN Award Winner for Best All-Girl Three-Way Sex Scene.
2010 AVN Award Nominee for Best Art Direction.
2010 AVN Award Nominee for Best Director - Feature.
2010 AVN Award Winner for Best DVD Extras.
2010 AVN Award Nominee for Best DVD Menus.
2010 AVN Award Winner for Best Editing.
2010 AVN Award Nominee for Best Group Sex Scene.
2010 AVN Award Winner for Best Makeup.
2010 AVN Award Nominee for Best Music Soundtrack.
2010 AVN Award Nominee for Best Overall Marketing Campaign.
2010 AVN Award Winner for Best Special Effects.
2010 AVN Award Nominee for Best Supporting Actor - Tyler Knight.
2010 AVN Award Nominee for Best Supporting Actress - Amber Rayne.
2010 AVN Award Nominee for Best Tease Performance.
2010 AVN Award Winner for Best Video Feature.
2010 AVN Award Winner for Best Videography.


: DVDRip-AVC : MKV
: AVC : AC3 / MP3
: AVC | 16:9 | 720x400 | 23.976 fps | 1 900 Kbps
1: AC3 | 48.0 KHz | 6 ch | 448 Kbps [Disc 1 | Disc 2]
2: MP3 | 48.0 kHz | 2 ch | 128 Kbps [Disc 1 | Disc 2]
3: AC3 | 48.0 KHz | 2 ch | 192 Kbps [Disc 3 | Disc 4]

[spoiler="Media Info"]

:

General
Complete name : D:\Reliz.by.unionpeer.org\The.8th.day.4xDVDRip-AVC.Milashka.RG.\The.8th.day.Rus.CD1.RG..mkv
Format : Matroska
File size : 2.13 GiB
Duration : 2h 3mn
Overall bit rate : 2 477 Kbps
Movie name : *unionpeer.org*RG.*Milashka*
Encoded date : UTC 2010-10-31 19:31:30
Writing application : mkvmerge v2.9.9 ('Tutu') built on Nov 25 2009 21:13:32
Writing library : libebml v0.7.9 + libmatroska v0.8.1

Video
ID : 1
Format : AVC
Format/Info : Advanced Video Codec
Format profile : High@L3.1
Format settings, CABAC : Yes
Format settings, ReFrames : 4 frames
Muxing mode : Container profile=Unknown@3.1
Codec ID : V_MPEG4/ISO/AVC
Duration : 2h 3mn
Bit rate : 1 852 Kbps
Nominal bit rate : 1 900 Kbps
Width : 720 pixels
Height : 400 pixels
Display aspect ratio : 16:9
Frame rate : 23.976 fps
Resolution : 8 bits
Colorimetry : 4:2:0
Scan type : Progressive
Bits/(Pixel*Frame) : 0.268
Stream size : 1.59 GiB (75%)
Writing library : x264 core 92 r1510 33d382a
Encoding settings : cabac=1 / ref=4 / deblock=1:0:0 / analyse=0x3:0x113 / me=umh / subme=7 / psy=1 / psy_rd=1.00:0.00 / mixed_ref=1 / me_range=32 / chroma_me=1 / trellis=0 / 8x8dct=1 / cqm=0 / deadzone=21,11 / fast_pskip=0 / chroma_qp_offset=-2 / threads=3 / sliced_threads=0 / nr=0 / decimate=1 / interlaced=0 / constrained_intra=0 / bframes=2 / b_pyramid=2 / b_adapt=0 / b_bias=0 / direct=3 / wpredb=1 / wpredp=0 / keyint=250 / keyint_min=25 / scenecut=40 / intra_refresh=0 / rc_lookahead=60 / rc=2pass / mbtree=1 / bitrate=1900 / ratetol=1.0 / qcomp=0.60 / qpmin=10 / qpmax=51 / qpstep=4 / cplxblur=20.0 / qblur=0.5 / vbv_maxrate=14000 / vbv_bufsize=14000 / ip_ratio=1.40 / aq=1:1.00 / nal_hrd=none

Audio #1
ID : 2
Format : AC-3
Format/Info : Audio Coding 3
Codec ID : A_AC3
Duration : 2h 3mn
Bit rate mode : Constant
Bit rate : 448 Kbps
Channel(s) : 6 channels
Channel positions : Front: L C R, Surround: L R, LFE
Sampling rate : 48.0 KHz
Stream size : 395 MiB (18%)

Audio #2
ID : 3
Format : MPEG Audio
Format version : Version 1
Format profile : Layer 3
Mode : Joint stereo
Codec ID : A_MPEG/L3
Codec ID/Hint : MP3
Duration : 2h 3mn
Bit rate mode : Constant
Bit rate : 128 Kbps
Channel(s) : 2 channels
Sampling rate : 48.0 KHz
Stream size : 113 MiB (5%)

:

General
Complete name : D:\Reliz.by.unionpeer.org\The.8th.day.4xDVDRip-AVC.Milashka.RG.\The.8th.day.Rus.CD2.RG..mkv
Format : Matroska
File size : 2.47 GiB
Duration : 2h 22mn
Overall bit rate : 2 476 Kbps
Movie name : *unionpeer.org* Milashka *RG.*
Encoded date : UTC 2010-11-01 05:18:08
Writing application : mkvmerge v2.9.9 ('Tutu') built on Nov 25 2009 21:13:32
Writing library : libebml v0.7.9 + libmatroska v0.8.1

Video
ID : 1
Format : AVC
Format/Info : Advanced Video Codec
Format profile : High@L3.1
Format settings, CABAC : Yes
Format settings, ReFrames : 4 frames
Muxing mode : Container profile=Unknown@3.1
Codec ID : V_MPEG4/ISO/AVC
Duration : 2h 22mn
Bit rate : 1 851 Kbps
Nominal bit rate : 1 900 Kbps
Width : 720 pixels
Height : 400 pixels
Display aspect ratio : 16:9
Frame rate : 23.976 fps
Resolution : 8 bits
Colorimetry : 4:2:0
Scan type : Progressive
Bits/(Pixel*Frame) : 0.268
Stream size : 1.84 GiB (75%)
Writing library : x264 core 92 r1510 33d382a
Encoding settings : cabac=1 / ref=4 / deblock=1:0:0 / analyse=0x3:0x113 / me=umh / subme=7 / psy=1 / psy_rd=1.00:0.00 / mixed_ref=1 / me_range=32 / chroma_me=1 / trellis=0 / 8x8dct=1 / cqm=0 / deadzone=21,11 / fast_pskip=0 / chroma_qp_offset=-2 / threads=3 / sliced_threads=0 / nr=0 / decimate=1 / interlaced=0 / constrained_intra=0 / bframes=2 / b_pyramid=2 / b_adapt=0 / b_bias=0 / direct=3 / wpredb=1 / wpredp=0 / keyint=250 / keyint_min=25 / scenecut=40 / intra_refresh=0 / rc_lookahead=60 / rc=2pass / mbtree=1 / bitrate=1900 / ratetol=1.0 / qcomp=0.60 / qpmin=10 / qpmax=51 / qpstep=4 / cplxblur=20.0 / qblur=0.5 / vbv_maxrate=14000 / vbv_bufsize=14000 / ip_ratio=1.40 / aq=1:1.00 / nal_hrd=none

Audio #1
ID : 2
Format : AC-3
Format/Info : Audio Coding 3
Codec ID : A_AC3
Duration : 2h 22mn
Bit rate mode : Constant
Bit rate : 448 Kbps
Channel(s) : 6 channels
Channel positions : Front: L C R, Surround: L R, LFE
Sampling rate : 48.0 KHz
Stream size : 457 MiB (18%)

Audio #2
ID : 3
Format : MPEG Audio
Format version : Version 1
Format profile : Layer 3
Mode : Joint stereo
Format_Settings_ModeExtension : MS Stereo
Codec ID : A_MPEG/L3
Codec ID/Hint : MP3
Duration : 2h 22mn
Bit rate mode : Constant
Bit rate : 128 Kbps
Channel(s) : 2 channels
Sampling rate : 48.0 KHz
Stream size : 131 MiB (5%)

:

General
Complete name : D:\Reliz.by.unionpeer.org\The.8th.day.4xDVDRip-AVC.Milashka.RG.\The.8th.day.CD3.RG..mkv
Format : Matroska
File size : 1.45 GiB
Duration : 1h 39mn
Overall bit rate : 2 094 Kbps
Encoded date : UTC 2010-11-01 07:01:22
Writing application : mkvmerge v3.3.0 ('Language') built on Mar 24 2010 14:59:24
Writing library : libebml v0.8.0 + libmatroska v0.9.0

Video
ID : 1
Format : AVC
Format/Info : Advanced Video Codec
Format profile : High@L3.1
Format settings, CABAC : Yes
Format settings, ReFrames : 4 frames
Muxing mode : Container profile=Unknown@3.1
Codec ID : V_MPEG4/ISO/AVC
Duration : 1h 38mn
Bit rate : 1 860 Kbps
Nominal bit rate : 1 900 Kbps
Width : 720 pixels
Height : 400 pixels
Display aspect ratio : 16:9
Frame rate : 23.976 fps
Resolution : 8 bits
Colorimetry : 4:2:0
Scan type : Progressive
Bits/(Pixel*Frame) : 0.269
Stream size : 1.29 GiB (89%)
Writing library : x264 core 92 r1510 33d382a
Encoding settings : cabac=1 / ref=4 / deblock=1:0:0 / analyse=0x3:0x113 / me=umh / subme=7 / psy=1 / psy_rd=1.00:0.00 / mixed_ref=1 / me_range=32 / chroma_me=1 / trellis=0 / 8x8dct=1 / cqm=0 / deadzone=21,11 / fast_pskip=0 / chroma_qp_offset=-2 / threads=3 / sliced_threads=0 / nr=0 / decimate=1 / interlaced=0 / constrained_intra=0 / bframes=2 / b_pyramid=2 / b_adapt=0 / b_bias=0 / direct=3 / wpredb=1 / wpredp=0 / keyint=250 / keyint_min=25 / scenecut=40 / intra_refresh=0 / rc_lookahead=60 / rc=2pass / mbtree=1 / bitrate=1900 / ratetol=1.0 / qcomp=0.60 / qpmin=10 / qpmax=51 / qpstep=4 / cplxblur=20.0 / qblur=0.5 / vbv_maxrate=14000 / vbv_bufsize=14000 / ip_ratio=1.40 / aq=1:1.00 / nal_hrd=none

Audio
ID : 2
Format : AC-3
Format/Info : Audio Coding 3
Codec ID : A_AC3
Duration : 1h 39mn
Bit rate mode : Constant
Bit rate : 192 Kbps
Channel(s) : 2 channels
Channel positions : L R
Sampling rate : 48.0 KHz
Stream size : 136 MiB (9%)[/spoiler]

:

General
Complete name : D:\Reliz.by.unionpeer.org\The.8th.day.4xDVDRip-AVC.Milashka.RG.\The.8th.day.CD4.RG..mkv
Format : Matroska
File size : 2.25 GiB
Duration : 2h 34mn
Overall bit rate : 2 094 Kbps
Encoded date : UTC 2010-11-01 13:01:35
Writing application : mkvmerge v3.3.0 ('Language') built on Mar 24 2010 14:59:24
Writing library : libebml v0.8.0 + libmatroska v0.9.0

Video
ID : 1
Format : AVC
Format/Info : Advanced Video Codec
Format profile : High@L3.1
Format settings, CABAC : Yes
Format settings, ReFrames : 4 frames
Muxing mode : Container profile=Unknown@3.1
Codec ID : V_MPEG4/ISO/AVC
Duration : 2h 33mn
Bit rate : 1 860 Kbps
Nominal bit rate : 1 900 Kbps
Width : 720 pixels
Height : 400 pixels
Display aspect ratio : 16:9
Frame rate : 23.976 fps
Resolution : 8 bits
Colorimetry : 4:2:0
Scan type : Progressive
Bits/(Pixel*Frame) : 0.269
Stream size : 2.00 GiB (89%)
Writing library : x264 core 92 r1510 33d382a
Encoding settings : cabac=1 / ref=4 / deblock=1:0:0 / analyse=0x3:0x113 / me=umh / subme=7 / psy=1 / psy_rd=1.00:0.00 / mixed_ref=1 / me_range=32 / chroma_me=1 / trellis=0 / 8x8dct=1 / cqm=0 / deadzone=21,11 / fast_pskip=0 / chroma_qp_offset=-2 / threads=3 / sliced_threads=0 / nr=0 / decimate=1 / interlaced=0 / constrained_intra=0 / bframes=2 / b_pyramid=2 / b_adapt=0 / b_bias=0 / direct=3 / wpredb=1 / wpredp=0 / keyint=250 / keyint_min=25 / scenecut=40 / intra_refresh=0 / rc_lookahead=60 / rc=2pass / mbtree=1 / bitrate=1900 / ratetol=1.0 / qcomp=0.60 / qpmin=10 / qpmax=51 / qpstep=4 / cplxblur=20.0 / qblur=0.5 / vbv_maxrate=14000 / vbv_bufsize=14000 / ip_ratio=1.40 / aq=1:1.00 / nal_hrd=none

Audio
ID : 2
Format : AC-3
Format/Info : Audio Coding 3
Codec ID : A_AC3
Duration : 2h 34mn
Bit rate mode : Constant
Bit rate : 192 Kbps
Channel(s) : 2 channels
Channel positions : L R
Sampling rate : 48.0 KHz
Stream size : 212 MiB (9%)


! AdBlock , )))
 ·  , , FAQ-
:  [ 05--2011 14:01 ]

  

.torrent

.torrent 42 KB


: 8.33 GB
(hash) : 65457df40c99b885de5ef4e4c57eae68d42d8dd3
··
...

The 8th Day 8- . !

!