Скачать через торрент Лес призраков The Forest Фильм бесплатно в хорошем качестве torrent

Скачивайте на UnionPeer.org фильмы через торрент без регистрации. Новинки кино в хорошем качестве через торрент. На UnionPeer.org можно скачать через торрент фильмы 2014 и 2015 годов. Самые новые фильмы.

Скачать торрент Лес призраков The Forest бесплатно через .torrent фильм мультфильм сериал

Статистика раздачи
Размер:  1.36 GB   |    Зарегистрирован:  2 года 6 месяцев   |    .torrent скачан:  93 раза   |   
Раздают:  1  
   
загрузка...
 
Автор Сообщение

Galfimbul

avatar Galfimbul


Лес призраков / The Forest
«Каждый приходит сюда в поиске выхода»
Страна: США
Жанр: Ужасы, детектив
Год выпуска: 2016
Продолжительность: 01:33:17
Перевод: Профессиональный (дублированный) - iTunes
Cубтитры: нет
Режиссер: Джейсон Зада / Jason Zada
В ролях: Натали Дормер, Оуэн Мэкен, Стефани Вогт, Осаму Танпопо, Ясуо Тобисима, Ибуки Канеда, Акико Ивасе, Кикуо Ичикава, Норико Сакура, Йозеф Аоки
Описание: Юная американка Сара отправляется на поиски сестры-близняшки, которая таинственным образом исчезла на японском острове Хонсю. Поиски приводят к подножью горы Фудзи, в таинственный лес, который пользуется дурной славой. Сара не подозревала, что она вступает в мрачный мир призраков, злых и измученных душ, которые охотятся на любого, кто блуждает по их мрачному лесу…
l
Качество видео: HDRip
Формат видео: AVI
Видео: 720х384 (1.85:1), 23.976 fps, XviD build 50, 1700 Kbps
Аудио: 48 kHz, AC3 Dolby Digital, 3/2 (L,C,R,l,r) + LFE ch, 384 Kbps

General
Complete name : Downloads\Les.prizrakov.2O16.HDRip.avi
Format : AVI
Format/Info : Audio Video Interleave
File size : 1.36 GiB
Duration : 1h 33mn
Overall bit rate : 2 093 Kbps
Writing application : VirtualDubMod 1.5.10.2 (build 2540/release)
Writing library : VirtualDubMod build 2540/release
Video #0
ID : 0
Format : MPEG-4 Visual
Format profile : Advanced Simple@L5
Format settings, BVOP : 2
Format settings, QPel : No
Format settings, GMC : No warppoints
Format settings, Matrix : Default (MPEG)
Codec ID : XVID
Codec ID/Hint : XviD
Duration : 1h 33mn
Bit rate : 1 700 Kbps
Width : 720 pixels
Height : 384 pixels
Display aspect ratio : 1.85:1
Frame rate : 23.976 fps
Color space : YUV
Chroma subsampling : 4:2:0
Bit depth : 8 bits
Scan type : Progressive
Compression mode : Lossy
Bits/(Pixel*Frame) : 0.256
Stream size : 1.11 GiB (81%)
Writing library : XviD 1.2.1 (UTC 2008-12-04)
Audio #1
ID : 1
Format : AC-3
Format/Info : Audio Coding 3
Mode extension : CM (complete main)
Format settings, Endianness : Big
Codec ID : 2000
Duration : 1h 33mn
Bit rate mode : Constant
Bit rate : 384 Kbps
Channel(s) : 6 channels
Channel positions : Front: L C R, Side: L R, LFE
Sampling rate : 48.0 KHz
Bit depth : 16 bits
Compression mode : Lossy
Stream size : 256 MiB (18%)
Alignment : Split accross interleaves
Interleave, duration : 42 ms (1.00 video frame)
Interleave, preload duration : 500 ms


Трекер:  [ 31-Мар-2016 08:00 ]

  

Скачать .torrent

Размер .torrent файла 14 KB


Размер: 1.36 GB
Хэш (hash) релиза: e957862398c82a3e95485b0f3df44f988c58f209
Подписка на обновления:

Торренты, похожие на Лес призраков The Forest скачать торрент

Форум Название Автор Размер S L Добавлен
Зарубежные фильмы 2016-2018 (Новинки зарубежного кино) ·· Лес призраков / The Forest (Джейсон Зада / Jason Zada) [2016, США, Ужасы, детектив, HDRip] Dub (iTunes) Galfimbul 772538368737 MB 0 0 1461670117

14:28

26-Апр-16

Зарубежные фильмы 2016-2018 (Новинки зарубежного кино) ·· Лес призраков / The Forest (Джейсон Зада / Jason Zada) [2016, США, Ужасы, детектив, HDRip] Dub (iTunes) Galfimbul 15112335361.41 GB 0 0 1461670098

14:28

26-Апр-16

Зарубежные фильмы 2016-2018 (Новинки зарубежного кино) ·· Лес призраков / The Forest (Джейсон Зада / Jason Zada) [2016, США, ужасы, детектив, HDRip-AVC] Dub (iTunes) + sub (eng) Galfimbul 780857724745 MB 0 0 1461669952

14:25

26-Апр-16

Зарубежные фильмы до 2016 ·· Лес призраков / The Forest (Джейсон Зада / Jason Zada) [2016, США, ужасы, детектив, BDRip 720p] Dub (iTunes) + Sub Eng + Original Eng Galfimbul 56230302715.24 GB 0 0 1459679008

13:23

3-Апр-16

Зарубежные фильмы 2016-2018 (Новинки зарубежного кино) ·· Лес призраков / The Forest (Джейсон Зада / Jason Zada) [2016, США, ужасы, детектив, BDRip-AVC] Dub Galfimbul 15678858231.46 GB 0 0 1459488833

08:33

1-Апр-16

Зарубежные фильмы 2016-2018 (Новинки зарубежного кино) ·· Лес призраков / The Forest (Джейсон Зада / Jason Zada) [2016, США, ужасы, BDRip 720p] iTunes Galfimbul 49612276774.62 GB 0 0 1459436038

17:53

31-Мар-16

Зарубежные фильмы 2016-2018 (Новинки зарубежного кино) ·· Лес призраков / The Forest (Джейсон Зада / Jason Zada) [2016, США, ужасы, BDRip 1080p] iTunes Galfimbul 84781043617.9 GB 0 0 1459392342

05:45

31-Мар-16

Зарубежные фильмы 2016-2018 (Новинки зарубежного кино) ·· Лес призраков / The Forest (Джейсон Зада / Jason Zada) [2016, США, ужасы, WEB-DL 1080p] Line Galfimbul 36599896593.41 GB 0 0 1458835482

19:04

24-Мар-16

Зарубежные фильмы 2016-2018 (Новинки зарубежного кино) ·· Лес призраков / The Forest (Джейсон Зада / Jason Zada) [2016, США, ужасы, WEB-DLRip] Dub (Line) + Original Eng Galfimbul 15733596161.47 GB 0 0 1458711030

08:30

23-Мар-16

Зарубежные фильмы до 2016 ·· Лес призраков / The Forest (Джейсон Зада) [2015, ужасы, WEBRip] Line Galfimbul 734311634700 MB 0 0 1455183983

12:46

11-Фев-16

Зарубежные фильмы до 2016 ·· Лес призраков / The Forest (Джейсон Зада) [2015, ужасы, WEBRip] Чистый звук Galfimbul 14632611841.36 GB 0 0 1454929976

14:12

8-Фев-16

Еще никто не оставлял запись к записи скачать торрент Лес призраков The Forest . Будь первым!

!Обратная связь