Скачать порно через торрент Perverted Stories 21: Psychosexual Disorders Извращенные истории 21 UnionPeer.org бесплатно онлайн HD качество

Скачать новое порно 2015, 2014 новинки через торрент UnionPeer.org

Порно торрент бесплатно ЮнионПир.орг

Статистика раздачи
Размер:  613 MB   |    Зарегистрирован:  11 лет   |    .torrent скачан:  1086 раз   |   
Раздают:  1  
 

Скачать Perverted Stories 21: Psychosexual Disorders / Извращенные истории 21 (Jim Powers, JM Productions) [1999 г., Anal, Oral, All Sex, Bukkake, Hardcore] [rus] через torrent

 
 
Автор Сообщение

Galfimbul

avatar Galfimbul


Perverted Stories #21: Psychosexual Disorders / Извращенные истории #21

Год производства: 1999 г.
Страна: USA
Жанр: Anal, Oral, All Sex, Bukkake, Hardcore
Продолжительность: 01:25:32
Язык: Английский
Перевод: Русский (Любительский, одноголосый)

Режиссер: Jim Powers
Студия: JM Productions

В ролях:
Actresses: Bobbi Bliss [Facial]; Maren [Anal]; Susy [Anal Facial]; Teah [Facial]
Actors: Brian Surewood; Bruno; Cuba; Damien Michaels; Dave Hardman;
Dick Nasty; Hershel Savage; J.J. Michaels; John Janiero; Mark Anthony
Mike Silver (as Michael Silver)

Описание:
Самый разный экстрим !!!
Постановочная сцена траха трупа, трах с уродом (грим), мужики трахают голову в коробке, и на последок реальный супер-буккаке !!!

Доп. информация: http://www.iafd.com/title.rme/title=Perverted+Stories+21%3A+Psychosexual+Disorders/year=1998/perverted-stories-21%3a-psychosexual-disorders.htm

Качество видео: VHSRip
Формат видео: AVI
Видео кодек: DivX3
Аудио кодек: MP3
Видео: DivX 3 512x384 25.00fps
Аудио: MPEG Audio Layer 3 44100Hz mono 63Kbps
General
Complete name : Perverted_Stories#21.avi
Format : AVI
Format/Info : Audio Video Interleave
File size : 612 MiB
Duration : 1h 25mn
Overall bit rate : 1 000 Kbps
Writing library : VirtualDub build 0/release

Video_INFO
ID : 0
Format : MPEG-4 Visual
Codec ID : DIV3
Codec ID/Hint : DivX 3 Low
Duration : 1h 25mn
Bit rate : 927 Kbps
Width : 512 pixels
Height : 384 pixels
Display aspect ratio : 4:3
Frame rate : 25.000 fps
Resolution : 24 bits
Bits/(Pixel*Frame) : 0.189
Stream size : 567 MiB (93%)

Audio INFO
ID : 1
Format : MPEG Audio
Format version : Version 1
Format profile : Layer 3
Codec ID : 55
Codec ID/Hint : MP3
Duration : 1h 25mn
Bit rate mode : Constant
Bit rate : 64.0 Kbps
Channel(s) : 1 channel
Sampling rate : 44.1 KHz
Resolution : 16 bits
Stream size : 39.0 MiB (6%)
Alignment : Split accross interleaves
Interleave, duration : 40 ms (1.00 video frame)
Interleave, preload duration : 499 ms


Внимание! AdBlock блокирует показ скриншотов, все вопросы к разработчикам )))
Трекер:  [ 03-Ноя-2011 00:14 ]

  

Скачать .torrent

Размер .torrent файла 12 KB


Размер: 613 MB
Хэш (hash) релиза: 893e777062e9d479550314bc58ad1964eafd132d

Еще никто не оставлял запись к записи скачать торрент Perverted Stories 21: Psychosexual Disorders Извращенные истории 21 . Будь первым!

!Обратная связь