Скачать порно через торрент House Of Sleeping Beauties 3 Дом спящих красавиц 3 UnionPeer.org бесплатно онлайн HD качество

Скачать новое порно 2015, 2014 новинки через торрент UnionPeer.org

Порно торрент бесплатно ЮнионПир.орг

Статистика раздачи
Размер:  714 MB   |    Зарегистрирован:  11 лет   |    .torrent скачан:  833 раза   |   
Раздают:  1  
 

Скачать House Of Sleeping Beauties 3 / Дом спящих красавиц 3 (Paul Thomas, Vivid) [1999 г., Feature, SATRip, Alyssa Love, Angelica Sin, Ember Haze, Lexus Locklear, Taylor Hayes, Ruby, Jessica Darlin, Chloe Nicole ] через torrent

 
 
Автор Сообщение

Galfimbul

avatar Galfimbul


House Of Sleeping Beauties 3 / Дом спящих красавиц 3

Год производства: 1999 г.
Страна: США
Жанр: Feature
Продолжительность: 1:55:42
Язык: Английский
Субтитры: есть (иероглифы)

Режиссер: Paul Thomas
Студия: Vivid

Дополнительная информация:
Разбивка сцен
Сцена 1. Angelica Sin, Rich Handsome
Сцена 2. Chloe, Derek Lane
Сцена 3. Taylor Hayes, James Bonn
Сцена 4. Lexus Locklear, Jon Dough
Сцена 5. Jessica Darlin, Taylor Hayes, Joel Lawrence
Сцена 6. Alyssa Love, Chloe, Derek Lane
Сцена 7. Ruby, Taylor Hayes, 3 guys, Michael J. Cox
Сцена 8. Lexus Locklear, Jon Dough, Mr. Marcus(не до конца)
Сцена 9. Lexus Locklear, Taylor Hayes, James Bonn - отсутствует(((

Технические данные:
Качество: SATRip
Формат: AVI
Видео: DivX 5 480x320 29.97fps
Видео кодек: DivX
Аудио кодек: MPEG Audio
Аудио: MPEG Audio Layer 3 48000Hz mono 64Kbps
General
Format : AVI
Format/Info : Audio Video Interleave
File size : 714 MiB
Duration : 1h 55mn
Overall bit rate : 863 Kbps
Writing library : VirtualDub build 13130/release
Video
Format : MPEG-4 Visual
Format settings, BVOP : Yes
Format settings, QPel : No
Format settings, GMC : No warppoints
Format settings, Matrix : Default (H.263)
Codec ID : DX50
Codec ID/Hint : DivX 5
Duration : 1h 55mn
Bit rate : 787 Kbps
Width : 480 pixels
Height : 320 pixels
Display aspect ratio : 1.500
Frame rate : 29.970 fps
Resolution : 24 bits
Scan type : Progressive
Bits/(Pixel*Frame) : 0.171
Stream size : 651 MiB (91%)
Writing library : DivX 5.0.2 (UTC 2002-05-16)
Audio
Format : MPEG Audio
Format version : Version 1
Format profile : Layer 3
Codec ID : 55
Codec ID/Hint : MP3
Duration : 1h 55mn
Bit rate mode : Constant
Bit rate : 64.0 Kbps
Channel(s) : 1 channel
Sampling rate : 48.0 KHz
Resolution : 16 bits
Stream size : 53.0 MiB (7%)
Alignment : Split accross interleaves
Interleave, duration : 33 ms (1.00 video frame)
Interleave, preload duration : 500 ms
Director Paul Thomas returns once again to his mythical House of Sleeping Beauties for this third tantalizing trek. The idea is that the House is a place where old men can come for the night, spending it alongside a youthful stunner who will sleep next to them. There's to be no hanky panky, but the experience enables the guys to think back to their younger days, when they were able to do much more than just sleep near lovely ladies. It's a nice way to work in a whole string of flashback and fantasy segments, without losing the narrative thrust that Thomas is aiming for. The plot of this one involves James Bonn and Joel Lawrence as a pair of World War II vets who both fell for the same woman back in the day. The object of their delirious desire was luscious Taylor Hayes, a woman who worked as a nurse at the military hospital by day and as a prostitute by night. The tale is told as a series of flashbacks as Bonn lies next to Locklear in the House of Sleeping Beauties. This video is Taylor's tour de force, a chance to show that given the right material, she's among the most talented women in the industry. She sizzles in each and every scene, whether taking on Bonn in a steamy session or romping her way through a threesome with Joel and busty Jessica Darlin. Taylor also finds her way into the middle of a heated orgy segment with Ruby and a bunch of hardy soldiers. All in all, this is one of the best plot-driven sexvids of the year, a great choice for couples or anyone who enjoys some real story with their action. "Volcanic! Taylor is magnificent!" -- Adam Film World."
В ролях:
1.Alyssa Love
2.Angelica Sin
3.Chloe [Facial]
4.Ember Haze
5.Jessica Darlin
6.Lexus Locklear[Facial IR]
7.Ruby [Facial]
8.Taylor Hayes [Anal Facial]

Актёры
Billy Glyde
Brad Armstrong
Derek Lane
J.D. Ram
Jack Hoffman [NonSex]
James Bonn
Joel Lawrence
Jon Dough
Michael J. Cox
Mr. Marcus
Rich Handsome


Внимание! AdBlock блокирует показ скриншотов, все вопросы к разработчикам )))
Трекер:  [ 02-Ноя-2011 01:03 ]

  

Скачать .torrent

Размер .torrent файла 14 KB


Размер: 714 MB
Хэш (hash) релиза: f6ebf1e20b417d0d7b2a663a41a29121ea192e10

Торренты, похожие на House Of Sleeping Beauties 3 Дом спящих красавиц 3 скачать торрент

Форум Название Автор Размер S L Добавлен
Архив (общий) ·· House Of Sleeping Beauties 3 / Дом спящих красавиц 3 (Paul Thomas, Vivid) [1999 г., Feature, Drama, DVDRip, Angelica Sin, Ember Haze, Lexus Locklear, Taylor Hayes, Ruby, Jessica Darlin, Chloe Nicole ] Galfimbul 17487384921.63 GB 0 0 1355573940

15:19

15-Дек-12

Еще никто не оставлял запись к записи скачать торрент House Of Sleeping Beauties 3 Дом спящих красавиц 3 . Будь первым!

!Обратная связь